Yamiche Alcindor | Phim Việt Nam | Eps13 Still the King - Season 2 (2017)

Скачать через торрент Нас не догонят Joueurs Фильм бесплатно в хорошем качестве torrent

Скачивайте на UnionPeer.org фильмы через торрент без регистрации. Новинки кино в хорошем качестве через торрент. На UnionPeer.org можно скачать через торрент фильмы 2014 и 2015 годов. Самые новые фильмы.

Скачать торрент Нас не догонят Joueurs бесплатно через .torrent фильм мультфильм сериал

Статистика раздачи
Размер:  3.83 GB   |    Зарегистрирован:  5 дней   |    .torrent скачан:  121 раз   |   
Раздают:  1  
   
загрузка...
 
Автор Сообщение

Galfimbul

avatar Galfimbul


Нас не догонят /Joueurs

Год выхода: 2018
Жанр: драма
Режиссер: Мари Монж
В ролях: Тахар Рахим, Стэйси Мартин, Брюно Волкович, Карим Леклу, Мари Денарно, Жан-Мишель Коррейя, Анри-Ноэль Табари, Джонатан Кузини, Роман Коссовски, Алассан Траоре, Джамел Барек, Йонас Динал, Николас Ретаби, Мао Молларе, Роми Базиз, Барнабе Кастанье, Летисия Гутиеррез, Серж Бурлон, Рафик Реджен, Николас Леви, Вирджиния Монтель, Милинко Спасойвеч, Лин Фе, Сандрин Гилбо, Себастьян Шаво, Анджело Айба

Описание: Спонтанный и привлекательный Абель — невероятный любовник и азартный игрок. После внезапной встречи с ним заурядная жизнь Эллы полностью меняется. Вместе они пускаются в манящий подпольный мир казино, где всем правят адреналин и высокие ставки. Их зависимость становится обоюдной, что удваивает шансы и повышает риски. История любви, начавшаяся с простого пари, вскоре превращается в неконтролируемую страсть к игре и друг другу.



Страна: Франция
Продолжительность: 01:47:12
Перевод: Профессиональный (многоголосый закадровый) iTunes Russian
Субтитры: нет
Оригинальная аудиодорожка: нет

Файл
Качество: WEB-DL 1080p
Видео: MPEG-4, 1920x804 (2,40:1), 4609 kbps, 24.000 fps, 0.124 bit/pixel
Аудио 1: Русский AC3, 48000 Гц, 6ch, 384 kbps
Аудио 2: Русский AAC, 48000 Гц, 2ch, 125 kbps
Общее
Уникальный идентификатор : 194818011755596272333255612101851287692 (0x92909591B5C5122F88AB5DC74637108C)
Полное имя : Joueurs.2018.WEBDL.1080p.iTunes.RUS-ylnian.mkv
Формат : Matroska
Версия формата : Version 4
Размер файла : 3,83 Гбайт
Продолжительность : 1 ч. 47 м.
Общий поток : 5120 Кбит/сек
Название фильма : Joueurs.2018.WEBDL.1080p.iTunes.RUS-ylnian
Дата кодирования : UTC 2018-11-08 09:51:30
Программа кодирования : mkvmerge v28.2.0 ('The Awakening') 64-bit
Библиотека кодирования : libebml v1.3.6 + libmatroska v1.4.9

Видео
Идентификатор : 1
Формат : AVC
Формат/Информация : Advanced Video Codec
Профиль формата : High@L4
Настройки формата : CABAC / 5 Ref Frames
Параметр CABAC формата : Да
Параметр RefFrames формата : 5 кадров
Идентификатор кодека : V_MPEG4/ISO/AVC
Продолжительность : 1 ч. 47 м.
Битрейт : 4609 Кбит/сек
Ширина : 1920 пикселей
Высота : 804 пикселя
Соотношение сторон : 2,40:1
Режим частоты кадров : Постоянный
Частота кадров : 24,000 кадра/сек
Цветовое пространство : YUV
Субдискретизация насыщенности : 4:2:0
Битовая глубина : 8 бит
Тип развёртки : Прогрессивная
Бит/(Пиксели*Кадры) : 0.124
Размер потока : 3,45 Гбайт (90%)
Заголовок : Joueurs.2018.WEBDL.1080p.iTunes.RUS-ylnian
Язык : French
Default : Да
Forced : Да
Цветовой диапазон : Limited
Основные цвета : BT.709
Характеристики трансфера : BT.709
Коэффициенты матрицы : BT.709

Аудио #1
Идентификатор : 2
Формат : AC-3
Формат/Информация : Audio Coding 3
Коммерческое название : Dolby Digital
Идентификатор кодека : A_AC3
Продолжительность : 1 ч. 47 м.
Вид битрейта : Постоянный
Битрейт : 384 Кбит/сек
Каналы : 6 каналов
Channel layout : L R C LFE Ls Rs
Частота : 48,0 КГц
Частота кадров : 31,250 кадров/сек (1536 SPF)
Битовая глубина : 16 бит
Метод сжатия : С потерями
Размер потока : 294 Мбайт (7%)
Язык : Russian
ServiceKind : Complete Main
Default : Да
Forced : Да

Аудио #2
Идентификатор : 3
Формат : AAC LC
Формат/Информация : Advanced Audio Codec Low Complexity
Идентификатор кодека : A_AAC-2
Продолжительность : 1 ч. 47 м.
Битрейт : 125 Кбит/сек
Каналы : 2 канала
Channel layout : L R
Частота : 48,0 КГц
Частота кадров : 46,875 кадров/сек (1024 SPF)
Метод сжатия : С потерями
Размер потока : 95,5 Мбайт (2%)
Язык : Russian
Default : Нет
Forced : Нет

Меню
00:00:00.000 : fr:1
00:06:25.083 : fr:2
00:12:57.041 : fr:3
00:22:03.666 : fr:4
00:31:07.957 : fr:5
00:38:55.457 : fr:6
00:46:01.373 : fr:7
00:54:38.998 : fr:8
01:03:09.789 : fr:9
01:11:11.789 : fr:10
01:16:34.122 : fr:11
01:22:27.038 : fr:12
01:30:57.496 : fr:13
01:39:30.079 : fr:14
Источник http://BlaTor.org

Трекер:  [ 08-Ноя-2018 19:20 ]

  

Скачать .torrent

Размер .torrent файла 19 KB


Размер: 3.83 GB
Хэш (hash) релиза: 86e9b4a9d883a4a26d0a2937cf2115b21e4e9a1c
Подписка на обновления:

Еще никто не оставлял запись к записи скачать торрент Нас не догонят Joueurs . Будь первым!

!Обратная связь