D.C.: Da Capo Subtitle Indonesia | Dujone (2009) Bengali Movie Original HDTVRip x264 HEVC 720p AAC [650MB] | sharpes battle

Скачать через торрент Гость The Guest Фильм бесплатно в хорошем качестве torrent

Скачивайте на UnionPeer.org фильмы через торрент без регистрации. Новинки кино в хорошем качестве через торрент. На UnionPeer.org можно скачать через торрент фильмы 2014 и 2015 годов. Самые новые фильмы.

Скачать торрент Гость The Guest бесплатно через .torrent фильм мультфильм сериал

Статистика раздачи
Размер:  4.22 GB   |    Зарегистрирован:  5 дней   |    .torrent скачан:  53 раза   |   
Раздают:  1  
   
загрузка...
 
Автор Сообщение

Galfimbul

avatar Galfimbul


Мы "В КОНТАКТЕ" =)



Год выпуска: 2014
Страна: США
Жанр: боевик
, триллер, детектив
Продолжительность: 01:34:43
Перевод: Дубляж - iTunes
Cубтитры: нет

Режиссер: Адам Вингард / Adam Wingard

В ролях: Дэн Стивенс, Майка Монро, Брендан Мейер, Шейла Келли, Лиленд Орсер, Лэнс Реддик, Табата Шон, Чейз Уильямсон, Джоэль Мур, Стивен Браун

Описание: В семью, потерявшую на войне своего сына и брата, приезжает незнакомец. Он представляется сослуживцем погибшего и напрашивается погостить у них несколько дней, чтобы познакомиться поближе, а заодно рассказать о своей службе. Незнакомец очень приветлив и добр к каждому из членов семьи и при каждом удобном случае старается чем-то помочь. Однако вскоре эта помощь становится все более и более радикальной…



Качество видео: BDRip 720p
Формат видео: MKV

Видео: 1280x534, 5631 kbps avg, AVC, 23.976 fps
Аудио: 48 kHz, AC3 Dolby Digital, 3/2 (L,C,R,l,r) + LFE ch, ~384 kbps

Видеоряд: CHD
Сборка
: Scarabey

АНОНСЫ МОИХ РАЗДАЧ!
ГостьGost'_2014_720p_BDRip_[unionpeer.org].mkv
Format : Matroska
Format version : Version 4 / Version 2
File size : 4.22 GiB
Duration : 1h 40mn
Overall bit rate : 6 011 Kbps
Encoded date : UTC 2017-03-19 20:42:19
Writing application : mkvmerge v6.1.0 ('Old Devil') built on Mar 4 2013 09:10:42
Writing library : libebml v1.3.0 + libmatroska v1.4.0

Video
ID : 1
Format : AVC
Format/Info : Advanced Video Codec
Format profile : High@L4.1
Format settings, CABAC : Yes
Format settings, ReFrames : 12 frames
Codec ID : V_MPEG4/ISO/AVC
Duration : 1h 40mn
Bit rate : 5 631 Kbps
Width : 1 280 pixels
Height : 534 pixels
Display aspect ratio : 2.40:1
Frame rate mode : Constant
Frame rate : 23.976 fps
Color space : YUV
Chroma subsampling : 4:2:0
Bit depth : 8 bits
Scan type : Progressive
Bits/(Pixel*Frame) : 0.344
Stream size : 3.86 GiB (92%)
Writing library : x264 core 138 r2358 9e941d1
Encoding settings : cabac=1 / ref=12 / deblock=1:-3:-3 / analyse=0x3:0x113 / me=umh / subme=11 / psy=1 / psy_rd=1.10:0.15 / mixed_ref=1 / me_range=32 / chroma_me=1 / trellis=2 / 8x8dct=1 / cqm=0 / deadzone=21,11 / fast_pskip=0 / chroma_qp_offset=-2 / threads=18 / lookahead_threads=1 / sliced_threads=0 / nr=0 / decimate=1 / interlaced=0 / bluray_compat=0 / constrained_intra=0 / bframes=6 / b_pyramid=2 / b_adapt=2 / b_bias=0 / direct=3 / weightb=1 / open_gop=0 / weightp=2 / keyint=250 / keyint_min=23 / scenecut=40 / intra_refresh=0 / rc_lookahead=40 / rc=2pass / mbtree=0 / bitrate=5631 / ratetol=1.0 / qcomp=0.60 / qpmin=0 / qpmax=69 / qpstep=4 / cplxblur=20.0 / qblur=0.5 / vbv_maxrate=40000 / vbv_bufsize=30000 / nal_hrd=none / ip_ratio=1.40 / pb_ratio=1.30 / aq=1:0.80
Language : English
Default : Yes
Forced : No

Audio
ID : 2
Format : AC-3
Format/Info : Audio Coding 3
Mode extension : CM (complete main)
Format settings, Endianness : Big
Codec ID : A_AC3
Duration : 1h 40mn
Bit rate mode : Constant
Bit rate : 384 Kbps
Channel(s) : 6 channels
Channel positions : Front: L C R, Side: L R, LFE
Sampling rate : 48.0 KHz
Bit depth : 16 bits
Compression mode : Lossy
Stream size : 276 MiB (6%)
Title : Дубляж - iTunes
Language : Russian
Default : Yes
Forced : No

Menu
00:00:00.000 : en:00:00:00.000
00:05:38.129 : en:00:05:38.129
00:09:36.159 : en:00:09:36.159
00:15:39.772 : en:00:15:39.772
00:20:37.653 : en:00:20:37.653
00:26:07.357 : en:00:26:07.357
00:31:22.422 : en:00:31:22.422
00:36:32.941 : en:00:36:32.941
00:40:39.479 : en:00:40:39.479
00:46:43.259 : en:00:46:43.259
00:49:52.531 : en:00:49:52.531
00:55:04.218 : en:00:55:04.218
01:00:38.927 : en:01:00:38.927
01:04:13.349 : en:01:04:13.349
01:09:22.742 : en:01:09:22.742
01:15:38.409 : en:01:15:38.409
01:20:08.053 : en:01:20:08.053
01:25:00.679 : en:01:25:00.679
01:30:15.201 : en:01:30:15.201
01:35:42.904 : en:01:35:42.904
Источник http://BlaTor.org

Трекер:  [ 08-Ноя-2018 18:50 ]

  

Скачать .torrent

Размер .torrent файла 21 KB


Размер: 4.22 GB
Хэш (hash) релиза: 51756e475c1749c5ba10249b84af0bf29588a9ad
Подписка на обновления:

Торренты, похожие на Гость The Guest скачать торрент

Форум Название Автор Размер S L Добавлен
Зарубежные фильмы до 2016 ·· Гость / The Guest (Адам Вингард / Adam Wingard) [2014, США, Великобритания, Триллер, боевик, DVD5] R5 Dub Galfimbul 44480655364.14 GB 0 0 1528140648

22:30

4-Июн-18

Зарубежные фильмы 2016-2018 (Новинки зарубежного кино) ·· Гость / The Guest (Адам Вингард) [2014, боевик, триллер, детектив, HDRip] A. Матвеев Galfimbul 15069368321.4 GB 0 0 1506738617

05:30

30-Сен-17

Зарубежные фильмы до 2016 ·· Гость / The Guest (Адам Вингард / Adam Wingard) [2014, США, Великобритания, триллер, боевик, BDRip-AVC] Dub + Original Eng + Sub (Rus, Eng) Galfimbul 17399249061.62 GB 0 0 1490601451

10:57

27-Мар-17

Зарубежные фильмы до 2016 ·· Гость / The Guest (Адам Вингард / Adam Wingard) [2014, США, Боевик, триллер, детектив, BDRip 720p] iTunes Galfimbul 70589147286.57 GB 0 0 1425036164

14:22

27-Фев-15

Зарубежные фильмы до 2016 ·· Гость / The Guest (Адам Вингард / Adam Wingard) [2014, США, Боевик, триллер, детектив, BDRip 1080p] iTunes Galfimbul 1294135830312.05 GB 0 0 1425036160

14:22

27-Фев-15

Зарубежные фильмы до 2016 ·· Гость / The Guest (Адам Вингард / Adam Wingard) [2014, США, Боевик, триллер, детектив, HDRip] Dub (iTunes) Galfimbul 14676951041.37 GB 0 0 1424927580

08:13

26-Фев-15

Зарубежные фильмы до 2016 ·· Гость / The Guest (Адам Вингард) [2014, боевик, триллер, детектив, HDRip-AVC] iTunes Galfimbul 14681306961.37 GB 0 0 1424908320

02:52

26-Фев-15

Зарубежные фильмы до 2016 ·· Гость / The Guest (Адам Вингард) [2014, боевик, триллер, детектив, HDRip] [iTunes] Galfimbul 14676951041.37 GB 0 0 1424902633

01:17

26-Фев-15

Зарубежные фильмы до 2016 ·· Гость / The Guest (Адам Вингард) [2014, триллер, боевик, BDRip 720p] Galfimbul 49789743594.64 GB 0 0 1424902598

01:16

26-Фев-15

Зарубежные фильмы до 2016 ·· Гость / The Guest (Адам Вингард) [2014, триллер, боевик, HDRip] Galfimbul 14676951041.37 GB 0 0 1424902588

01:16

26-Фев-15

Зарубежные фильмы до 2016 ·· Гость / The Guest (Адам Вингард / Adam Wingard) [2014, США, Боевик, триллер, детектив, BDRip-AVC] VO (А. Матвеев) + Sub Rus + Original Eng Galfimbul 23420919232.18 GB 0 0 1420658600

22:23

7-Янв-15

Зарубежные фильмы до 2016 ·· Гость / The Guest (Адам Вингард / Adam Wingard) [2014, США, боевик, триллер, детектив, НDRip] Galfimbul 734236672700 MB 0 0 1419112474

00:54

21-Дек-14

Зарубежные фильмы до 2016 ·· Гость / The Guest (Адам Вингард / Adam Wingard) [2014, США, боевик, триллер, детектив, HDRip] DVO + Original Rus Galfimbul 14737285121.37 GB 0 0 1418317601

20:06

11-Дек-14

Зарубежные фильмы до 2016 ·· Гость / The Guest (Адам Вингард) [2014, Боевик, триллер, детектив, WEB-DLRip 1080p] Galfimbul 34408918043.2 GB 0 0 1417970717

19:45

7-Дек-14

Зарубежные фильмы до 2016 ·· Гость / The Guest (Адам Вингард) [2014, Боевик, триллер, детектив, HDRip] Galfimbul 14737285121.37 GB 0 0 1417799419

20:10

5-Дек-14

Зарубежные фильмы до 2016 ·· Комната для гостей / The Guest Room (Генри Олек) [2011, ужасы, триллер, HDTVRip] Galfimbul 15706624001.46 GB 0 0 1361296053

20:47

19-Фев-13

Зарубежные фильмы до 2016 ·· Смотритель / Сторож / Гость / The Caretaker / The Guest (Клайв Доннер / Clive Donner) [1963, Великобритания, драма, DVD9 (Custom)] [4:3 PAL R2] VO + Sub Rus (leburs) + Sub Eng + Original Eng + Commntary Eng Galfimbul 63639449605.93 GB 0 0 1474714279

13:51

24-Сен-16

Зарубежные фильмы 2016-2018 (Новинки зарубежного кино) ·%· Невидимый гость / Contratiempo / The Invisible Guest (2016) BDRemux 1080p от ExKinoRay | GER Transfer | iTunes Galfimbul 2059885145119.18 GB 0 0 1530026426

18:20

26-Июн-18

Зарубежные фильмы до 2016 ·· Невидимый гость / Contratiempo / The Invisible Guest (Ориол Паоло / Oriol Paulo) [2016, Испания, триллер, криминал, детектив, BDRip 1080p] MVO (AlexFilm) + VO (С. Малиновский) + Original (Spa) + Sub (Rus, Eng) Galfimbul 1094289828010.19 GB 0 0 1520723863

02:17

11-Мар-18

Еще никто не оставлял запись к записи скачать торрент Гость The Guest . Будь первым!

!Обратная связь