WATCH NOW! | Ted McGinley | Deep.Teen.Throat.15.XXX.720p.WEBRip.MP4-VSEX

Скачать через торрент Миссия невыполнима: Последствия Mission: Impossible - Fallout Фильм бесплатно в хорошем качестве torrent

Скачивайте на UnionPeer.org фильмы через торрент без регистрации. Новинки кино в хорошем качестве через торрент. На UnionPeer.org можно скачать через торрент фильмы 2014 и 2015 годов. Самые новые фильмы.

Скачать торрент Миссия невыполнима: Последствия Mission: Impossible - Fallout бесплатно через .torrent фильм мультфильм сериал

Статистика раздачи
Размер:  6.08 GB   |    Зарегистрирован:  5 дней   |    .torrent скачан:  355 раз   |   
Раздают:  1  
   
загрузка...
 
Автор Сообщение

Galfimbul

avatar Galfimbul


Название: Миссия невыполнима: Последствия
Оригинальное название: Mission: Impossible - Fallout
Год выхода: 2018
Жанр: боевик, триллер, приключения
Режиссер: Кристофер МакКуорри / Christopher McQuarrie
В ролях: Том Круз, Ребекка Фергюсон, Генри Кавилл, Мишель Монахэн, Ванесса Кирби, Уэс Бентли, Саймон Пегг, Анджела Бассетт, Алек Болдуин, Винг Реймз, Шон Харрис

О фильме:
Итан Хант и его команда, а также недавно примкнувшие к ним союзники, вынуждены действовать наперегонки со временем, когда новая миссия идет не по плану.



Выпущено: США, Китай, Франция, Норвегия
Продолжительность: 02:27:41
Перевод: Любительский (многоголосый закадровый)
Субтитры: Английские

РЕКЛАМЫ НЕТ!

Файл
Качество: WEB-DL 1080p
Видео: AVC/H.264, 1920x1012, 5124 kbps, 23.976 fps
Аудио »1: АС3, 2 ch, 48 kHz, 192 Kbps | Русский (MVO)
Аудио »2: АС3, 2 ch, 48 kHz, 192 Kbps | Украинский (DUB)
Аудио »3: АС3, 6 ch, 48 kHz, 384 Kbps | Английский

Общее
Уникальный идентификатор : 187170514114945684035435641295763920645 (0x8CCFBAD32059E22C9345E6A922ABD705)
Полное имя : D:Миссия.невыполнима.Последствия.2018.WEB-DL.[1080p].NNMClub.mkv
Формат : Matroska
Версия формата : Version 4
Размер файла : 6,08 Гбайт
Продолжительность : 2 ч. 27 м.
Общий поток : 5893 Кбит/сек
Название фильма : Миссия.невыполнима.Последствия.2018.WEB-DL.[1080p].NNMClub
Дата кодирования : UTC 2018-11-07 14:10:51
Программа кодирования : mkvmerge v8.3.0 ('Over the Horizon') 64bit
Библиотека кодирования : libebml v1.3.1 + libmatroska v1.4.2

Видео
Идентификатор : 1
Формат : AVC
Формат/Информация : Advanced Video Codec
Профиль формата : High@L4
Настройки формата : CABAC / 4 Ref Frames
Параметр CABAC формата : Да
Параметр RefFrames формата : 4 кадра
Идентификатор кодека : V_MPEG4/ISO/AVC
Продолжительность : 2 ч. 27 м.
Битрейт : 5124 Кбит/сек
Ширина : 1920 пикселей
Высота : 1012 пикселей
Соотношение сторон : 1,897
Режим частоты кадров : Постоянный
Частота кадров : 23,976 (24000/1001) кадра/сек
Цветовое пространство : YUV
Субдискретизация насыщенности : 4:2:0
Битовая глубина : 8 бит
Тип развёртки : Прогрессивная
Бит/(Пиксели*Кадры) : 0.110
Размер потока : 5,29 Гбайт (87%)
Язык : English
Default : Да
Forced : Нет
Цветовой диапазон : Limited
Основные цвета : BT.709
Характеристики трансфера : BT.709
Коэффициенты матрицы : BT.709

Аудио #1
Идентификатор : 2
Формат : AC-3
Формат/Информация : Audio Coding 3
Коммерческое название : Dolby Digital
Идентификатор кодека : A_AC3
Продолжительность : 2 ч. 27 м.
Вид битрейта : Постоянный
Битрейт : 192 Кбит/сек
Каналы : 2 канала
Channel layout : L R
Частота : 48,0 КГц
Частота кадров : 31,250 кадров/сек (1536 SPF)
Битовая глубина : 16 бит
Метод сжатия : С потерями
Задержка видео : -43 мс.
Размер потока : 202 Мбайт (3%)
Язык : Russian
ServiceKind : Complete Main
Default : Да
Forced : Нет

Аудио #2
Идентификатор : 3
Формат : AC-3
Формат/Информация : Audio Coding 3
Коммерческое название : Dolby Digital
Идентификатор кодека : A_AC3
Продолжительность : 2 ч. 27 м.
Вид битрейта : Постоянный
Битрейт : 192 Кбит/сек
Каналы : 2 канала
Channel layout : L R
Частота : 48,0 КГц
Частота кадров : 31,250 кадров/сек (1536 SPF)
Битовая глубина : 16 бит
Метод сжатия : С потерями
Задержка видео : -43 мс.
Размер потока : 202 Мбайт (3%)
Заголовок : Студия LeDoyen
Язык : Ukrainian
ServiceKind : Complete Main
Default : Нет
Forced : Нет

Аудио #3
Идентификатор : 4
Формат : AC-3
Формат/Информация : Audio Coding 3
Коммерческое название : Dolby Digital
Идентификатор кодека : A_AC3
Продолжительность : 2 ч. 27 м.
Вид битрейта : Постоянный
Битрейт : 384 Кбит/сек
Каналы : 6 каналов
Channel layout : L R C LFE Ls Rs
Частота : 48,0 КГц
Частота кадров : 31,250 кадров/сек (1536 SPF)
Битовая глубина : 16 бит
Метод сжатия : С потерями
Задержка видео : -43 мс.
Размер потока : 405 Мбайт (7%)
Заголовок : Original
Язык : English
ServiceKind : Complete Main
Default : Нет
Forced : Нет

Текст
Идентификатор : 5
Формат : UTF-8
Идентификатор кодека : S_TEXT/UTF8
Идентификатор кодека/Информация : UTF-8 Plain Text
Продолжительность : 2 ч. 19 м.
Битрейт : 46 бит/сек
ElementCount : 1547
Размер потока : 47,6 Кбайт (0%)
Язык : English
Default : Нет
Forced : Нет

Меню
00:00:00.000 : en:1
00:10:35.000 : en:2
00:17:09.000 : en:3
00:26:54.000 : en:4
00:35:53.000 : en:5
00:49:14.000 : en:6
00:59:56.000 : en:7
01:10:18.000 : en:8
01:17:01.000 : en:9
01:28:22.000 : en:10
01:39:02.000 : en:11
01:46:19.000 : en:12
01:55:37.000 : en:13
02:03:02.000 : en:14
02:13:52.000 : en:15
02:19:38.000 : en:16
Источник http://BlaTor.org

Трекер:  [ 08-Ноя-2018 18:50 ]

  

Скачать .torrent

Размер .torrent файла 31 KB


Размер: 6.08 GB
Хэш (hash) релиза: 62c12384f8621b2a914f6c80456d848d07ecf871
Подписка на обновления:

Еще никто не оставлял запись к записи скачать торрент Миссия невыполнима: Последствия Mission: Impossible - Fallout . Будь первым!

!Обратная связь