Read More.. | Movie The Idolmaster : Kagayaki no Mukougawa e BD Subtitle Indonesia | UFO Ultramaiden Valkyrie 3 Episode 3 English Dubbed

Скачать через торрент Мег: Монстр глубины The Meg Фильм бесплатно в хорошем качестве torrent

Скачивайте на UnionPeer.org фильмы через торрент без регистрации. Новинки кино в хорошем качестве через торрент. На UnionPeer.org можно скачать через торрент фильмы 2014 и 2015 годов. Самые новые фильмы.

Скачать торрент Мег: Монстр глубины The Meg бесплатно через .torrent фильм мультфильм сериал

Статистика раздачи
Размер:  4.61 GB   |    Зарегистрирован:  5 дней   |    .torrent скачан:  99 раз   |   
Раздают:  1  
   
загрузка...
 
Автор Сообщение

Galfimbul

avatar Galfimbul


Год выпуска: 2018
Производство: США, Китай / Apelles Entertainment, Gravity Pictures...
Жанр: ужасы, фантастика, боевик, триллер
Продолжительность: 01:53:13
Перевод: Дубляж [iTunes]
Субтитры: русские (полные + форс.), английские (Full + SDH)
Навигация по главам: есть
Режиссер: Джон Тёртлтауб / Jon Turteltaub
В ролях:
Джейсон Стэйтем (Jonas Taylor), Ли Бинбин (Suyin), Рэйн Уилсон (Morris), Клифф Кёртис (Mac), Уинстон Чао (Zhang), Шуя Софиа Цай (Meiying), Руби Роуз (Jaxx), Пейдж Кеннеди (DJ), Роберт Тейлор (Heller), Оулавюр Дарри Оулафссон (The Wall), Джессика МакНэми (Lori), Маси Ока (Toshi)
О фильме: Глубоководный батискаф, осуществляющий наблюдение в рамках международной программы по изучению подводной жизни, был атакован огромным существом, которое все считали давно вымершим. Неисправный аппарат теперь лежит на дне глубочайшей впадины Тихого океана... с оказавшимся в ловушке экипажем. Их время на исходе. Китайский океанограф-новатор, несмотря на протесты его дочери Суинь, зовет спасателя-подводника Джонаса Тейлора, чтобы тот помог спасти команду и океан от невиданной угрозы - доисторической 23-метровой акулы, мегалодона. Никто и подумать не мог, что много лет назад Тейлор уже сталкивался с этим чудовищным созданием.
Бюджет: $130 000 000
Рейтинг:

Качество: BDRip-HEVC 1080p
Формат: MKV
Видео: 1920x804, 23.976 fps, HEVC, ~5001 kbps, 10bit
Аудио №1: AC3 / 5.1 / 48 kHz / 384 kbps / 16 bit | DUB - iTunes
Аудио №2: AC3 / 5.1 / 48 kHz / 448 kbps / 16 bit | ENG
General
Unique ID : 37485225227478927508884442587214987665 (0x1C33644B492A39B55A85E3B2C0FD4191)
Complete name : C:UserscryvgenDesktopРаздачиThe Meg (2018) (1080p BluRay x265 10bit).mkv
Format : Matroska
Format version : Version 4 / Version 2
File size : 4.61 GiB
Duration : 1 h 53 min
Overall bit rate : 5 835 kb/s
Movie name : Rip by: sm0tJay
Encoded date : UTC 2018-11-08 03:45:47
Writing application : mkvmerge v28.1.0 ('Morning Child') 64-bit
Writing library : libebml v1.3.6 + libmatroska v1.4.9

Video
ID : 1
Format : HEVC
Format/Info : High Efficiency Video Coding
Format profile : Main 10@L4@Main
Codec ID : V_MPEGH/ISO/HEVC
Duration : 1 h 53 min
Bit rate : 5 001 kb/s
Width : 1 920 pixels
Height : 804 pixels
Display aspect ratio : 2.40:1
Frame rate mode : Constant
Frame rate : 23.976 (24000/1001) FPS
Color space : YUV
Chroma subsampling : 4:2:0
Bit depth : 10 bits
Bits/(Pixel*Frame) : 0.135
Stream size : 3.95 GiB (86%)
Title : Encoded by: Tigole
Writing library : x265 2.9+1-169e76b6bbcc:[Windows][GCC 8.2.0][64 bit] 10bit
Encoding settings : cpuid=1111039 / frame-threads=3 / numa-pools=8 / wpp / no-pmode / no-pme / no-psnr / no-ssim / log-level=2 / input-csp=1 / input-res=1920x804 / interlace=0 / total-frames=162884 / level-idc=0 / high-tier=1 / uhd-bd=0 / ref=4 / no-allow-non-conformance / no-repeat-headers / annexb / no-aud / no-hrd / info / hash=0 / no-temporal-layers / open-gop / min-keyint=23 / keyint=250 / gop-lookahead=0 / bframes=8 / b-adapt=2 / b-pyramid / bframe-bias=0 / rc-lookahead=25 / lookahead-slices=4 / scenecut=40 / radl=0 / no-intra-refresh / ctu=64 / min-cu-size=8 / rect / no-amp / max-tu-size=32 / tu-inter-depth=1 / tu-intra-depth=1 / limit-tu=0 / rdoq-level=2 / dynamic-rd=0.00 / no-ssim-rd / signhide / no-tskip / nr-intra=0 / nr-inter=0 / no-constrained-intra / strong-intra-smoothing / max-merge=3 / limit-refs=3 / limit-modes / me=3 / subme=3 / merange=57 / temporal-mvp / weightp / no-weightb / no-analyze-src-pics / deblock=0:0 / sao / no-sao-non-deblock / rd=4 / no-early-skip / rskip / no-fast-intra / no-tskip-fast / no-cu-lossless / no-b-intra / no-splitrd-skip / rdpenalty=0 / psy-rd=2.00 / psy-rdoq=1.00 / no-rd-refine / no-lossless / cbqpoffs=0 / crqpoffs=0 / rc=abr / bitrate=5000 / qcomp=0.60 / qpstep=4 / stats-write=0 / stats-read=2 / cplxblur=20.0 / qblur=0.5 / ipratio=1.40 / pbratio=1.30 / aq-mode=3 / aq-strength=1.00 / cutree / zone-count=0 / no-strict-cbr / qg-size=32 / no-rc-grain / qpmax=69 / qpmin=0 / no-const-vbv / sar=0 / overscan=0 / videoformat=5 / range=0 / colorprim=2 / transfer=2 / colormatrix=2 / chromaloc=0 / display-window=0 / max-cll=0,0 / min-luma=0 / max-luma=1023 / log2-max-poc-lsb=8 / vui-timing-info / vui-hrd-info / slices=1 / no-opt-qp-pps / no-opt-ref-list-length-pps / multi-pass-opt-rps / scenecut-bias=0.05 / no-opt-cu-delta-qp / aq-motion / no-hdr / no-hdr-opt / no-dhdr10-opt / no-idr-recovery-sei / analysis-reuse-level=5 / scale-factor=0 / refine-intra=0 / refine-inter=0 / refine-mv=0 / no-limit-sao / ctu-info=0 / no-lowpass-dct / refine-mv-type=0 / copy-pic=1 / max-ausize-factor=1.0 / no-dynamic-refine / no-single-sei
Language : English
Default : Yes
Forced : No

Audio #1
ID : 2
Format : AC-3
Format/Info : Audio Coding 3
Format settings, Endianness : Big
Codec ID : A_AC3
Duration : 1 h 53 min
Bit rate mode : Constant
Bit rate : 384 kb/s
Channel(s) : 6 channels
Channel positions : Front: L C R, Side: L R, LFE
Sampling rate : 48.0 kHz
Frame rate : 31.250 FPS (1536 spf)
Bit depth : 16 bits
Compression mode : Lossy
Stream size : 311 MiB (7%)
Title : Дубляж (iTunes) (Russian - AC-3 5.1)
Language : Russian
Service kind : Complete Main
Default : Yes
Forced : Yes

Audio #2
ID : 3
Format : AC-3
Format/Info : Audio Coding 3
Format settings, Endianness : Big
Codec ID : A_AC3
Duration : 1 h 53 min
Bit rate mode : Constant
Bit rate : 448 kb/s
Channel(s) : 6 channels
Channel positions : Front: L C R, Side: L R, LFE
Sampling rate : 48.0 kHz
Frame rate : 31.250 FPS (1536 spf)
Bit depth : 16 bits
Compression mode : Lossy
Stream size : 363 MiB (8%)
Title : Original (English - AC3 5.1)
Language : English
Service kind : Complete Main
Default : No
Forced : No

Text #1
ID : 4
Format : UTF-8
Codec ID : S_TEXT/UTF8
Codec ID/Info : UTF-8 Plain Text
Duration : 1 h 41 min
Bit rate : 5 b/s
Count of elements : 108
Stream size : 3.79 KiB (0%)
Title : Forced
Language : Russian
Default : Yes
Forced : No

Text #2
ID : 5
Format : UTF-8
Codec ID : S_TEXT/UTF8
Codec ID/Info : UTF-8 Plain Text
Duration : 1 h 52 min
Bit rate : 78 b/s
Count of elements : 1203
Stream size : 64.6 KiB (0%)
Title : iTunes
Language : Russian
Default : No
Forced : No

Text #3
ID : 6
Format : UTF-8
Codec ID : S_TEXT/UTF8
Codec ID/Info : UTF-8 Plain Text
Duration : 1 h 52 min
Bit rate : 5 b/s
Count of elements : 111
Stream size : 4.20 KiB (0%)
Title : Forced
Language : Ukrainian
Default : No
Forced : No

Text #4
ID : 7
Format : UTF-8
Codec ID : S_TEXT/UTF8
Codec ID/Info : UTF-8 Plain Text
Duration : 1 h 41 min
Bit rate : 51 b/s
Count of elements : 1069
Stream size : 38.3 KiB (0%)
Title : Full
Language : English
Default : No
Forced : No

Text #5
ID : 8
Format : UTF-8
Codec ID : S_TEXT/UTF8
Codec ID/Info : UTF-8 Plain Text
Duration : 1 h 41 min
Bit rate : 60 b/s
Count of elements : 1269
Stream size : 44.6 KiB (0%)
Title : SDH
Language : English
Default : No
Forced : No

Menu
00:00:00.000 : en:Chapter 01
00:08:48.694 : en:Chapter 02
00:18:14.259 : en:Chapter 03
00:27:09.878 : en:Chapter 04
00:39:30.534 : en:Chapter 05
00:49:10.989 : en:Chapter 06
00:58:01.478 : en:Chapter 07
01:08:22.890 : en:Chapter 08
01:19:45.947 : en:Chapter 09
01:30:04.399 : en:Chapter 10
01:42:40.988 : en:Chapter 11
Закодировал Видео - Tigole
Собрал Рип - sm0tJay
Источник http://BlaTor.org

Трекер:  [ 08-Ноя-2018 14:00 ]

  

Скачать .torrent

Размер .torrent файла 12 KB


Размер: 4.61 GB
Хэш (hash) релиза: 13e6e550a7f383acb962de8d75f49505480f80f7
Подписка на обновления:

Торренты, похожие на Мег: Монстр глубины The Meg скачать торрент

Форум Название Автор Размер S L Добавлен
Зарубежные фильмы 2016-2018 (Новинки зарубежного кино) ·%· Мег: Монстр глубины / The Meg (2018) HDRip-AVC | Лицензия Galfimbul 774018817738 MB 0 0 1542138028

22:40

13-Ноя-18

Зарубежные фильмы 2016-2018 (Новинки зарубежного кино) ·%· Мег: Монстр глубины / The Meg (2018) HDRip от Portablius | Лицензия Galfimbul 835532800797 MB 0 0 1542069642

03:40

13-Ноя-18

Зарубежные фильмы 2016-2018 (Новинки зарубежного кино) ·%· Мег: Монстр глубины / The Meg (2018) BDRip-HEVC 1080p от KORSAR | Лицензия Galfimbul 66802720836.22 GB 0 0 1542040820

19:40

12-Ноя-18

Зарубежные фильмы 2016-2018 (Новинки зарубежного кино) ·%· Мег: Монстр глубины / The Meg (2018) BDRemux 1080p от селезень | Лицензия Galfimbul 1951139630218.17 GB 0 0 1541979029

02:30

12-Ноя-18

Зарубежные фильмы 2016-2018 (Новинки зарубежного кино) ·%· Мег: Монстр глубины / The Meg (2018) BDRip-AVC от HELLYWOOD | Лицензия Galfimbul 31255428422.91 GB 0 0 1541970677

00:11

12-Ноя-18

Зарубежные фильмы 2016-2018 (Новинки зарубежного кино) ·%· Мег: Монстр глубины / The Meg (2018) HDRip от Kaztorrents | КПК | Лицензия Galfimbul 453060853432 MB 0 0 1541962273

21:51

11-Ноя-18

Зарубежные фильмы 2016-2018 (Новинки зарубежного кино) ·%· Мег: Монстр глубины / The Meg (2018) UHD Blu-ray EUR 2160p | 4K | HDR | Лицензия Galfimbul 5885062140254.81 GB 0 0 1541916629

09:10

11-Ноя-18

Зарубежные фильмы 2016-2018 (Новинки зарубежного кино) ·%· Мег: Монстр глубины / The Meg (2018) BDRip 1080p от селезень | Лицензия Galfimbul 1283434440111.95 GB 0 0 1541914220

08:30

11-Ноя-18

Зарубежные фильмы 2016-2018 (Новинки зарубежного кино) ·%· Мег: Монстр глубины / The Meg (2018) BDRip 720p от селезень | Лицензия Galfimbul 60428607325.63 GB 0 0 1541913607

08:20

11-Ноя-18

Зарубежные фильмы 2016-2018 (Новинки зарубежного кино) ·%· Мег: Монстр глубины / The Meg (2018) BDRip от ExKinoRay | iTunes Galfimbul 22977802242.14 GB 0 0 1541643622

05:20

8-Ноя-18

Зарубежные фильмы 2016-2018 (Новинки зарубежного кино) ·%· Мег: Монстр глубины / The Meg (2018) BDRip 1080p от qqss44 & MegaPeer | iTunes Galfimbul 81009547057.54 GB 0 0 1541617256

22:00

7-Ноя-18

Зарубежные фильмы 2016-2018 (Новинки зарубежного кино) ·%· Мег: Монстр глубины / The Meg (2018) BDRip от ExKinoRay | iTunes Galfimbul 15156290041.41 GB 0 0 1541615434

21:30

7-Ноя-18

Зарубежные фильмы 2016-2018 (Новинки зарубежного кино) ·%· Мег: Монстр глубины / The Meg (2018) BDRemux 1080p от селезень | iTunes Galfimbul 1945699773618.12 GB 0 0 1541484711

09:11

6-Ноя-18

Зарубежные фильмы 2016-2018 (Новинки зарубежного кино) ·%· Мег: Монстр глубины / The Meg (2018) BDRip 1080p от селезень | iTunes Galfimbul 1277994586811.9 GB 0 0 1541421830

15:43

5-Ноя-18

Зарубежные фильмы 2016-2018 (Новинки зарубежного кино) ·%· Мег: Монстр глубины / The Meg (2018) BDRip 720p от селезень | iTunes Galfimbul 59884625565.58 GB 0 0 1541415020

13:50

5-Ноя-18

Зарубежные фильмы 2016-2018 (Новинки зарубежного кино) ·%· Мег: Монстр глубины / The Meg (2018) HDRip от Dalemake | iTunes Galfimbul 15767813071.47 GB 0 0 1541353224

20:40

4-Ноя-18

Зарубежные фильмы 2016-2018 (Новинки зарубежного кино) ·%· Мег: Монстр глубины / The Meg (2018) WEB-DLRip от Scarabey | iTunes Galfimbul 783083520747 MB 0 0 1541261497

19:11

3-Ноя-18

Зарубежные фильмы 2016-2018 (Новинки зарубежного кино) ·%· Мег: Монстр глубины / The Meg (2018) WEB-DLRip от Portablius | iTunes Galfimbul 783474463747 MB 0 0 1541086379

18:32

1-Ноя-18

Зарубежные фильмы 2016-2018 (Новинки зарубежного кино) ·%· Мег: Монстр глубины / The Meg (2018) WEB-DLRip-AVC от ExKinoRay | iTunes Galfimbul 781456657745 MB 0 0 1541047806

07:50

1-Ноя-18

Еще никто не оставлял запись к записи скачать торрент Мег: Монстр глубины The Meg . Будь первым!

!Обратная связь