Скачать через торрент Сомния Before I Wake Фильм бесплатно в хорошем качестве torrent

Скачивайте на UnionPeer.org фильмы через торрент без регистрации. Новинки кино в хорошем качестве через торрент. На UnionPeer.org можно скачать через торрент фильмы 2014 и 2015 годов. Самые новые фильмы.

Скачать торрент Сомния Before I Wake бесплатно через .torrent фильм мультфильм сериал

Статистика раздачи
Размер:  742 MB   |    Зарегистрирован:  14 дней   |    .torrent скачан:  86 раз   |   
Раздают:  1  
   
загрузка...
 
Автор Сообщение

Galfimbul

avatar Galfimbul


Сомния /Before I Wake

Год выхода: 2016
Жанр: ужасы, фэнтези, триллер, драма
Режиссер: Майк Флэнеган / Mike Flanagan
В ролях: Джейкоб Трамбле, Кейт Босворт, Томас Джейн, Скотти Томпсон, Аннабет Гиш, Дэш Майок, Джей Карнс, Кайла Дивер, Лэнс Э. Николс, Кортни Белл
О фильме:
У молодой пары, потерявшей маленького сына, появляется второй шанс на счастливую жизнь, когда они берут из приюта замечательного восьмилетнего Коди. По неизвестной им причине он очень боится засыпать по ночам, но вскоре оказывается, что дело в необычном даре Коди - пока он спит, его сны оживают. Каждую ночь новым родителям могут явиться либо прекрасные видения его воображения, либо леденящие душу порождения его кошмаров. И эти кошмары - смертельно опасны.


Страна: США
Студия: Demarest Films, Intrepid Pictures, MICA Entertainment
Продолжительность: 01:36:41
Перевод: Профессиональный (полное дублирование) | iTunes

Файл
Кодек: H.264
Качество: BDRip-AVC (BDRemux 1080p)
Видео: High@L4.1; 768x320; 1011 Кбит/сек; 23,976 кадра/сек; 0.172
Звук: HE-AAC / LC; 48,0 КГц / 24,0 КГц; 64,0 Кбит/сек; 2 канала
Субтитры: нет
Главы: Да

Общее
Уникальный идентификатор : 224688112713892666762576589197204878247 (0xA9095B3FCE5D762782CD815278A173A7)
Полное имя : D:Фильмы_УжасыСомния (2016) BDRip iTunes.mkv
Формат : Matroska
Версия формата : Version 4 / Version 2
Размер файла : 742 Мбайт
Продолжительность : 1 ч. 36 м.
Общий поток : 1073 Кбит/сек
Дата кодирования : UTC 2018-11-07 14:12:54
Программа кодирования : mkvmerge v9.8.0 ('Kuglblids') 64bit
Библиотека кодирования : libebml v1.3.4 + libmatroska v1.4.5

Видео
Идентификатор : 1
Формат : AVC
Формат/Информация : Advanced Video Codec
Профиль формата : High@L4.1
Настройки формата : CABAC / 16 Ref Frames
Параметр CABAC формата : Да
Параметр RefFrames формата : 16 кадров
Идентификатор кодека : V_MPEG4/ISO/AVC
Продолжительность : 1 ч. 36 м.
Битрейт : 1011 Кбит/сек
Ширина : 768 пикселей
Высота : 320 пикселей
Соотношение сторон : 2,40:1
Режим частоты кадров : Постоянный
Частота кадров : 23,976 (24000/1001) кадра/сек
Цветовое пространство : YUV
Субдискретизация насыщенности : 4:2:0
Битовая глубина : 8 бит
Тип развёртки : Прогрессивная
Бит/(Пиксели*Кадры) : 0.172
Размер потока : 697 Мбайт (94%)
Библиотека кодирования : x264 core 157 r2935 545de2f
Настройки программы : cabac=1 / ref=16 / deblock=1:-1:-1 / analyse=0x3:0x133 / me=umh / subme=10 / psy=1 / psy_rd=1.00:0.15 / mixed_ref=1 / me_range=24 / chroma_me=1 / trellis=2 / 8x8dct=1 / cqm=0 / deadzone=21,11 / fast_pskip=1 / chroma_qp_offset=-3 / threads=6 / lookahead_threads=1 / sliced_threads=0 / nr=0 / decimate=1 / interlaced=0 / bluray_compat=0 / constrained_intra=0 / bframes=8 / b_pyramid=2 / b_adapt=2 / b_bias=0 / direct=3 / weightb=1 / open_gop=0 / weightp=2 / keyint=240 / keyint_min=23 / scenecut=40 / intra_refresh=0 / rc_lookahead=60 / rc=2pass / mbtree=0 / bitrate=1011 / ratetol=1.0 / qcomp=0.60 / qpmin=0 / qpmax=69 / qpstep=4 / cplxblur=20.0 / qblur=0.5 / vbv_maxrate=50000 / vbv_bufsize=62500 / nal_hrd=none / filler=0 / ip_ratio=1.40 / pb_ratio=1.30 / aq=1:1.00
Default : Да
Forced : Нет

Аудио
Идентификатор : 2
Формат : AAC
Формат/Информация : Advanced Audio Codec
Профиль формата : HE-AAC / LC
Настройки формата : Explicit
Идентификатор кодека : A_AAC-2
Продолжительность : 1 ч. 36 м.
Битрейт : 64,0 Кбит/сек
Каналы : 2 канала
Расположение каналов : Front: L R
Частота : 48,0 КГц / 24,0 КГц
Частота кадров : 23,438 кадра/сек (1024 SPF)
Метод сжатия : С потерями
Задержка видео : 31 мс.
Размер потока : 44,3 Мбайт (6%)
Заголовок : iTunes
Язык : Russian
Default : Да
Forced : Нет

Меню
00:00:00.000 : en:Chapter 01
00:02:08.876 : en:Chapter 02
00:09:05.542 : en:Chapter 03
00:13:10.163 : en:Chapter 04
00:24:22.710 : en:Chapter 05
00:30:44.342 : en:Chapter 06
00:43:21.974 : en:Chapter 07
00:51:13.695 : en:Chapter 08
01:01:56.211 : en:Chapter 09
01:11:19.274 : en:Chapter 10
01:24:52.587 : en:Chapter 11
01:31:22.975 : en:Chapter 12
01:36:41.753 : en:Chapter 13
Источник http://BlaTor.org

Трекер:  [ 07-Ноя-2018 20:30 ]

  

Скачать .torrent

Размер .torrent файла 15 KB


Размер: 742 MB
Хэш (hash) релиза: 69e2c90ba67e2a500b8f67998da49e518186a00e
Подписка на обновления:

Торренты, похожие на Сомния Before I Wake скачать торрент

Форум Название Автор Размер S L Добавлен
Зарубежные фильмы до 2016 ·· Сомния / Before I Wake (Майк Флэнеган / Mike Flanagan) [2016, США, ужасы, фэнтези, триллер, драма, BDRip 1080p] Dub (iTunes) + Sub Eng + Original Eng Galfimbul 70596796836.57 GB 0 0 1474918681

22:38

26-Сен-16

Зарубежные фильмы 2016-2018 (Новинки зарубежного кино) ·· Сомния / Before I Wake (2016) HDRip от Kaztorrents | КПК | iTunes Galfimbul 530597231506 MB 0 0 1472973361

10:16

4-Сен-16

Зарубежные фильмы до 2016 ·· Сомния / Before I Wake (Майк Флэнеган / Mike Flanagan) [2016, США, ужасы, фэнтези, триллер, драма, BDRip 720p] Dub (iTunes) + Original Eng Galfimbul 34105391683.18 GB 0 0 1471727938

00:18

21-Авг-16

Зарубежные фильмы 2016-2018 (Новинки зарубежного кино) ·· Сомния / Before I Wake (Майк Флэнеган / Mike Flanagan) [2016, США, ужасы, фэнтези, триллер, драма, BDRip-AVC] Dub + Original + Sub (eng) Galfimbul 15652768821.46 GB 0 0 1471076998

11:29

13-Авг-16

Зарубежные фильмы 2016-2018 (Новинки зарубежного кино) ·· Сомния / Before I Wake (Майк Флэнеган / Mike Flanagan) [2016, США, Ужасы, фэнтези, триллер, драма, HDRip] Dub (iTunes) Galfimbul 780296192744 MB 0 0 1471076994

11:29

13-Авг-16

Зарубежные фильмы 2016-2018 (Новинки зарубежного кино) ·· Сомния / Before I Wake (Майк Флэнеган / Mike Flanagan) [2016, США, Ужасы, фэнтези, триллер, драма, BDRip] Dub (iTunes) + Original Galfimbul 22568181762.1 GB 0 0 1471075080

10:58

13-Авг-16

Зарубежные фильмы 2016-2018 (Новинки зарубежного кино) ·· Сомния / Before I Wake (Майк Флэнеган) [2016, ужасы, фэнтези, триллер, драма, BDRip 1080p] iTunes Galfimbul 92922714718.65 GB 0 0 1470890642

07:44

11-Авг-16

Зарубежные фильмы 2016-2018 (Новинки зарубежного кино) ·· Сомния / Before I Wake (Майк Флэнеган) [2016, ужасы, фэнтези, триллер, драма, BDRip 720p] iTunes Galfimbul 50142705004.67 GB 0 0 1470890637

07:43

11-Авг-16

Зарубежные фильмы 2016-2018 (Новинки зарубежного кино) ·· Сомния / Before I Wake (Майк Флэнеган) [2016, ужасы, фэнтези, триллер, драма, HDRip] iTunes Galfimbul 14686597121.37 GB 0 0 1470890633

07:43

11-Авг-16

Зарубежные фильмы 2016-2018 (Новинки зарубежного кино) ·· Сомния / Before I Wake (Майк Флэнеган) [2016, ужасы, фэнтези, триллер, драма, WEB-DLRip] Line Galfimbul 14716784641.37 GB 0 0 1469979777

18:42

31-Июл-16

Зарубежные фильмы 2016-2018 (Новинки зарубежного кино) ·· Сомния / Before I Wake (Майк Флэнеган) [2016, ужасы, фэнтези, триллер, драма, Web-DLRip] LINE Galfimbul 14716784641.37 GB 0 0 1469893577

18:46

30-Июл-16

Зарубежные фильмы 2016-2018 (Новинки зарубежного кино) ·· Сомния / Before I Wake (Майк Флэнеган) [2016, ужасы, фэнтези, триллер, драма, WEBRip 720p] звук с TS Galfimbul 25884017992.41 GB 0 0 1464925380

06:43

3-Июн-16

Зарубежные фильмы 2016-2018 (Новинки зарубежного кино) ·· Сомния / Before I Wake (Майк Флэнеган) [2016, ужасы, фэнтези, триллер, драма, WEBRip] звук с TS Galfimbul 14577254401.36 GB 0 0 1464921785

05:43

3-Июн-16

Еще никто не оставлял запись к записи скачать торрент Сомния Before I Wake . Будь первым!

!Обратная связь
Nick Mohammed | épisode 12 streaming Clear | The Pianist