Great Teacher Onizuka Sub Indo Batch Eps 1-43 Lengkap | Green Green Sub Indo Batch Eps 1-12 + OVA Lengkap | Hikaru no Go Sub Indo Batch Eps 1-75 Lengkap

Скачать через торрент О, Люси! Oh Lucy! Фильм бесплатно в хорошем качестве torrent

Скачивайте на UnionPeer.org фильмы через торрент без регистрации. Новинки кино в хорошем качестве через торрент. На UnionPeer.org можно скачать через торрент фильмы 2014 и 2015 годов. Самые новые фильмы.

Скачать торрент О, Люси! Oh Lucy! бесплатно через .torrent фильм мультфильм сериал

Статистика раздачи
Размер:  1.36 GB   |    Зарегистрирован:  6 дней   |    .torrent скачан:  80 раз   |   
Раздают:  1  
   
загрузка...
 
Автор Сообщение

Galfimbul

avatar Galfimbul


О, Люси! /Oh Lucy!

Год выхода: 2017
Жанр: Драма, комедия
Режиссер: Ацуко Хираянаги
В ролях: Синобу Тэрадзима, Джош Хартнетт, Кахо Минами, Сиори Куцуна, Кодзи Якусё, Меган Маллалли, Рейко Эйлсворт, Арман Торосян, Миоко Ямагути

О фильме:
История Сэцуко Кавасимы — немолодой офисной служащей, без конца курящей и неизменно одинокой в огромном Токио. Однажды по просьбе племянницы Мики женщина идёт на курсы английского и в своём американском альтер-эго — Люси — Сэцуко узнаёт другую, обновлённую версию себя. Это вдохновляет и раскрепощает женщину, она влюбляется в своего преподавателя Джона. Когда Джон с Микой сбегают в Америку, Сецуко вместе с младшей сестрой, матерью Мики, отправляется за ними в Калифорнию.



Страна: Япония, США, Matchgirl Pictures, Gloria Sanchez Productions, Meridian Content
Продолжительность: 01:36:06
Перевод: Любительский (двухголосый закадровый) | HiWay Grope

Файл
Кодек: XviD
Качество: WEBRip
Видео: 720x354, 23.976 fps, ~1638 kbps, 0.27 bit/pixel
Звук:
Аудио rus: AC3, 48 kHz, 6 ch, 384 Kbps
Субтитры: отсутствуют

Реклама: присутствует

Семпл
General
Complete name : D:Oh.Lucy.2017.WEBRip.HiWayGropeOh.Lucy.2017.WEBRip.HiWayGrope.avi
Format : AVI
Format/Info : Audio Video Interleave
File size : 1.36 GiB
Duration : 1 h 36 min
Overall bit rate : 2 032 kb/s
Writing application : VirtualDubMod 1.5.10.3 (build 2550/release)
Writing library : VirtualDubMod build 2550/release

Video
ID : 0
Format : MPEG-4 Visual
Format profile : Simple@L5
Format settings : BVOP1
Format settings, BVOP : 1
Format settings, QPel : No
Format settings, GMC : No warppoints
Format settings, Matrix : Default (MPEG)
Codec ID : XVID
Codec ID/Hint : XviD
Duration : 1 h 36 min
Bit rate : 1 638 kb/s
Width : 720 pixels
Height : 354 pixels
Display aspect ratio : 16:9
Frame rate : 23.976 (24000/1001) FPS
Color space : YUV
Chroma subsampling : 4:2:0
Bit depth : 8 bits
Scan type : Progressive
Compression mode : Lossy
Bits/(Pixel*Frame) : 0.268
Stream size : 1.10 GiB (81%)
Writing library : XviD 67

Audio
ID : 1
Format : AC-3
Format/Info : Audio Coding 3
Codec ID : 2000
Duration : 1 h 36 min
Bit rate mode : Constant
Bit rate : 384 kb/s
Channel(s) : 6 channels
Channel positions : Front: L C R, Side: L R, LFE
Sampling rate : 48.0 kHz
Frame rate : 31.250 FPS (1536 SPF)
Bit depth : 16 bits
Compression mode : Lossy
Stream size : 264 MiB (19%)
Alignment : Split accross interleaves
Interleave, duration : 42 ms (1.00 video frame)
Interleave, preload duration : 500 ms
Service kind : Complete Main
Релиз от: HiWay Grope
Источник http://BlaTor.org

Трекер:  [ 07-Ноя-2018 18:10 ]

  

Скачать .torrent

Размер .torrent файла 14 KB


Размер: 1.36 GB
Хэш (hash) релиза: a017a6747543d8ee312a4a3b40a3a8a6d444f281
Подписка на обновления:

Торренты, похожие на О, Люси! Oh Lucy! скачать торрент

Форум Название Автор Размер S L Добавлен
Зарубежные фильмы 2016-2018 (Новинки зарубежного кино) ·%· О, Люси! / Oh Lucy! (2017) WEBRip 720p | L2 Galfimbul 23645741772.2 GB 0 0 1541580045

11:40

7-Ноя-18

Еще никто не оставлял запись к записи скачать торрент О, Люси! Oh Lucy! . Будь первым!

!Обратная связь