Скачать через торрент Человек-муравей и Оса Ant-Man and the Wasp Фильм бесплатно в хорошем качестве torrent

Скачивайте на UnionPeer.org фильмы через торрент без регистрации. Новинки кино в хорошем качестве через торрент. На UnionPeer.org можно скачать через торрент фильмы 2014 и 2015 годов. Самые новые фильмы.

Скачать торрент Человек-муравей и Оса Ant-Man and the Wasp бесплатно через .torrent фильм мультфильм сериал

Статистика раздачи
Размер:  5.81 GB   |    Зарегистрирован:  29 дней   |    .torrent скачан:  141 раз   |   
Раздают:  1  
   
загрузка...
 
Автор Сообщение

Galfimbul

avatar Galfimbul


Человек-муравей и Оса /Ant-Man and the Wasp

Год выхода: 2018
Жанр: фантастика, боевик, приключения
Продолжительность: 01:58:20
Перевод: Профессиональный (полное дублирование)

Режиссер:
Пейтон Рид / Peyton Reed

В ролях:
Пол Радд, Эванджелин Лилли, Майкл Пенья, Уолтон Гоггинс, Бобби Каннавейл, Джуди Грир, Ти Ай, Давид Дастмалчян, Ханна Джон-Кэймен, Эбби Райдер Фортсон

О фильме:
Скотт Лэнг, известный также как Человек-муравей, уже заслужил право оказаться в команде Мстителей. Но желание быть ближе к дочери удерживает его в родном Сан-Франциско — до тех пор, пока доктор Хэнк Пим, создавший когда-то изменяющий размеры своего владельца чудо-костюм, не призывает Скотта присоединиться к новой опасной миссии. А помогать в противостоянии с коварным врагом Человеку-муравью будет новая напарница — Оса.



Файл
Качество: WEBRip 1080p
Формат: MKV
Видео кодек: x.264
Видео: 1920x1080, 5120 kbps avg, 23.976 fps
Аудио #1: 48 kHz, AC-3, 6 ch, 640 kbps | Русский (Дубляж – iTunes)
Аудио #2: 48 kHz, AC-3, 2 ch, 192 kbps | Украинский (Дубляж)
Аудио #3: 48 kHz, DTS, 6 ch, 1509 kbps | Английский (Оригинал - BluRay)
Аудио #4: 48 kHz, AC-3, 2 ch, 192 kbps | Английский (Комментарии)
Субтитры: Русские, украинские, английские
Формат : Matroska
Версия формата : Version 4 / Version 2
Размер файла : 5,81 Гбайт
Продолжительность : 1 ч. 58 м.
Общий поток : 7034 Кбит/сек
Название фильма : Ant-Man.and.the.Wasp.2018.Open.Matte.1080p.WEBRip.Rus.Ukr.Eng.TeamHD-spartanec163
Дата кодирования : UTC 2018-10-17 17:09:37
Программа кодирования : mkvmerge v8.3.0 ('Over the Horizon') 64bit
Библиотека кодирования : libebml v1.3.1 + libmatroska v1.4.2

Видео
Идентификатор : 1
Формат : AVC
Формат/Информация : Advanced Video Codec
Профиль формата : High@L4
Параметр CABAC формата : Да
Параметр ReFrames формата : 4 кадра
Идентификатор кодека : V_MPEG4/ISO/AVC
Продолжительность : 1 ч. 58 м.
Битрейт : 4758 Кбит/сек
Номинальный битрейт : 5120 Кбит/сек
Ширина : 1920 пикселей
Высота : 1080 пикселей
Соотношение сторон : 16:9
Режим частоты кадров : Постоянный
Частота кадров : 23,976 (24000/1001) кадра/сек
Цветовое пространство : YUV
Субдискретизация насыщенности : 4:2:0
Битовая глубина : 8 бит
Тип развёртки : Прогрессивная
Бит/(Пиксели*Кадры) : 0.096
Размер потока : 3,93 Гбайт (68%)
Заголовок : WEBRip 1080p (IVI)
Библиотека кодирования : x264 core 142
Настройки программы : cabac=1 / ref=3 / deblock=1:0:0 / analyse=0x3:0x113 / me=hex / subme=7 / psy=1 / psy_rd=1.00:0.00 / mixed_ref=1 / me_range=16 / chroma_me=1 / trellis=1 / 8x8dct=1 / cqm=0 / deadzone=21,11 / fast_pskip=1 / chroma_qp_offset=-2 / threads=48 / lookahead_threads=8 / sliced_threads=0 / nr=0 / decimate=1 / interlaced=0 / bluray_compat=0 / constrained_intra=0 / bframes=6 / b_pyramid=2 / b_adapt=1 / b_bias=0 / direct=1 / weightb=1 / open_gop=0 / weightp=2 / keyint=50 / keyint_min=26 / scenecut=0 / intra_refresh=0 / rc_lookahead=40 / rc=2pass / mbtree=1 / bitrate=5120 / ratetol=1.0 / qcomp=0.60 / qpmin=0 / qpmax=69 / qpstep=4 / cplxblur=20.0 / qblur=0.5 / vbv_maxrate=7680 / vbv_bufsize=20480 / nal_hrd=none / filler=0 / ip_ratio=1.40 / aq=1:1.00
Язык : Russian
Default : Да
Forced : Нет

Аудио #1
Идентификатор : 2
Формат : AC-3
Формат/Информация : Audio Coding 3
Расширение режима : CM (complete main)
Параметр Endianness формата : Big
Идентификатор кодека : A_AC3
Продолжительность : 1 ч. 58 м.
Вид битрейта : Постоянный
Битрейт : 384 Кбит/сек
Каналы : 6 каналов
Расположение каналов : Front: L C R, Side: L R, LFE
Частота : 48,0 КГц
Частота кадров : 31,250 кадров/сек (1536 spf)
Метод сжатия : С потерями
Размер потока : 324 Мбайт (5%)
Заголовок : AC3 5.1 384Kbps (Дубляж - iTunes)
Язык : Russian
Default : Да
Forced : Нет

Аудио #2
Идентификатор : 3
Формат : AC-3
Формат/Информация : Audio Coding 3
Расширение режима : CM (complete main)
Параметр Endianness формата : Big
Идентификатор кодека : A_AC3
Продолжительность : 1 ч. 58 м.
Вид битрейта : Постоянный
Битрейт : 192 Кбит/сек
Каналы : 2 канала
Расположение каналов : Front: L R
Частота : 48,0 КГц
Частота кадров : 31,250 кадров/сек (1536 spf)
Метод сжатия : С потерями
Размер потока : 162 Мбайт (3%)
Заголовок : AC3 2.0 192Kbps (Дубляж)
Язык : Ukrainian
Default : Нет
Forced : Нет

Аудио #3
Идентификатор : 4
Формат : DTS
Формат/Информация : Digital Theater Systems
Режим : 16
Параметр Endianness формата : Big
Идентификатор кодека : A_DTS
Продолжительность : 1 ч. 58 м.
Вид битрейта : Постоянный
Битрейт : 1509 Кбит/сек
Каналы : 6 каналов
Расположение каналов : Front: L C R, Side: L R, LFE
Частота : 48,0 КГц
Частота кадров : 93,750 кадра/сек (512 spf)
Битовая глубина : 24 бит
Метод сжатия : С потерями
Размер потока : 1,24 Гбайт (21%)
Заголовок : DTS 5.1 1509Kbps (Оригинал - BluRay)
Язык : English
Default : Нет
Forced : Нет

Аудио #4
Идентификатор : 5
Формат : AC-3
Формат/Информация : Audio Coding 3
Расширение режима : CM (complete main)
Параметр Endianness формата : Big
Идентификатор кодека : A_AC3
Продолжительность : 1 ч. 58 м.
Вид битрейта : Постоянный
Битрейт : 192 Кбит/сек
Каналы : 2 канала
Расположение каналов : Front: L R
Частота : 48,0 КГц
Частота кадров : 31,250 кадров/сек (1536 spf)
Метод сжатия : С потерями
Размер потока : 162 Мбайт (3%)
Заголовок : AC3 2.0 192Kbps (Комментарии)
Язык : English
Default : Нет
Forced : Нет

Текст #1
Идентификатор : 6
Формат : UTF-8
Идентификатор кодека : S_TEXT/UTF8
Идентификатор кодека/Информация : UTF-8 Plain Text
Продолжительность : 1 ч. 57 м.
Битрейт : 87 бит/сек
Count of elements : 1794
Размер потока : 75,4 Кбайт (0%)
Заголовок : Полные, IVI
Язык : Russian
Default : Нет
Forced : Нет

Текст #2
Идентификатор : 7
Формат : UTF-8
Идентификатор кодека : S_TEXT/UTF8
Идентификатор кодека/Информация : UTF-8 Plain Text
Продолжительность : 1 ч. 57 м.
Битрейт : 101 бит/сек
Count of elements : 2094
Размер потока : 87,7 Кбайт (0%)
Заголовок : Полные, SDH, IVI
Язык : Russian
Default : Нет
Forced : Нет

Текст #3
Идентификатор : 8
Формат : UTF-8
Идентификатор кодека : S_TEXT/UTF8
Идентификатор кодека/Информация : UTF-8 Plain Text
Продолжительность : 1 ч. 54 м.
Битрейт : 0 бит/сек
Count of elements : 5
Размер потока : 268 байт (0%)
Заголовок : Надписи и пр.
Язык : Ukrainian
Default : Нет
Forced : Нет

Текст #4
Идентификатор : 9
Формат : UTF-8
Идентификатор кодека : S_TEXT/UTF8
Идентификатор кодека/Информация : UTF-8 Plain Text
Продолжительность : 1 ч. 50 м.
Битрейт : 65 бит/сек
Count of elements : 1930
Размер потока : 53,4 Кбайт (0%)
Заголовок : Полные, BluRay
Язык : English
Default : Нет
Forced : Нет

Текст #5
Идентификатор : 10
Формат : UTF-8
Идентификатор кодека : S_TEXT/UTF8
Идентификатор кодека/Информация : UTF-8 Plain Text
Продолжительность : 1 ч. 57 м.
Битрейт : 68 бит/сек
Count of elements : 2136
Размер потока : 59,3 Кбайт (0%)
Заголовок : Полные, SDH, BluRay
Язык : English
Default : Нет
Forced : Нет

Текст #6
Идентификатор : 11
Формат : UTF-8
Идентификатор кодека : S_TEXT/UTF8
Идентификатор кодека/Информация : UTF-8 Plain Text
Продолжительность : 1 ч. 57 м.
Битрейт : 129 бит/сек
Count of elements : 2402
Размер потока : 112 Кбайт (0%)
Заголовок : Комментарии
Язык : English
Default : Нет
Forced : Нет

Меню
00:00:00.000 : en:Prologue
00:04:01.648 : en:World's Greatest Grandma
00:10:15.021 : en:Easy Peasy
00:13:38.475 : en:Quantum Entanglement
00:21:24.065 : en:Kitchen Conflict
00:29:06.443 : en:Bill Foster
00:36:07.698 : en:Student Body
00:40:55.193 : en:Molecular Disequilibrium
00:50:16.045 : en:Truth Serum
00:58:57.691 : en:Help From Janet
01:04:55.048 : en:Partners
01:12:52.901 : en:Misdirection
01:18:30.738 : en:San Francisco Car Chase
01:24:43.527 : en:Giant-Man
01:29:45.954 : en:The Quantum Void
01:36:14.884 : en:Extraction
01:43:33.948 : en:Happy Endings
01:46:58.444 : en:End Credits
Источник http://BlaTor.org

Трекер:  [ 23-Окт-2018 16:40 ]

  

Скачать .torrent

Размер .torrent файла 15 KB


Размер: 5.81 GB
Хэш (hash) релиза: ffaba5a9496dabeb3610b8d5fca0de13e9b983bc
Подписка на обновления:

Торренты, похожие на Человек-муравей и Оса Ant-Man and the Wasp скачать торрент

Форум Название Автор Размер S L Добавлен
Зарубежные фильмы 2016-2018 (Новинки зарубежного кино) ·%· Человек-муравей и Оса / Ant-Man and the Wasp (2018) BDRip 720p от NNNB | 60 fps | Лицензия Galfimbul 73967164706.89 GB 0 0 1542547289

16:21

18-Ноя-18

Зарубежные фильмы 2016-2018 (Новинки зарубежного кино) ·%· Человек-муравей и Оса / Ant-Man and the Wasp (2018) BDRip от HQ-ViDEO | D Galfimbul 23403601922.18 GB 0 0 1541997612

07:40

12-Ноя-18

Зарубежные фильмы 2016-2018 (Новинки зарубежного кино) ·%· Человек-муравей и Оса / Ant-Man and the Wasp (2018) BDRemux 1080p от селезень | 3D-Video | Лицензия Galfimbul 3575637606433.3 GB 0 0 1541752870

11:41

9-Ноя-18

Зарубежные фильмы 2016-2018 (Новинки зарубежного кино) ·%· Человек-муравей и Оса / Ant-Man and the Wasp (2018) HDRip от Generalfilm | КПК | Лицензия Galfimbul 471027288449 MB 0 0 1541718629

02:10

9-Ноя-18

Зарубежные фильмы 2016-2018 (Новинки зарубежного кино) ·%· Человек-муравей и Оса / Ant-Man and the Wasp (2018) UHD BDRemux 2160p от селезень | 4K | HDR | Лицензия Galfimbul 4432183294941.28 GB 0 0 1541715051

01:10

9-Ноя-18

Зарубежные фильмы 2016-2018 (Новинки зарубежного кино) ·%· Человек-муравей и Оса / Ant-Man and the Wasp (2018) BDRip-HEVC 1080p от KORSAR | Лицензия Galfimbul 57948370915.4 GB 0 0 1541710215

23:50

8-Ноя-18

Зарубежные фильмы 2016-2018 (Новинки зарубежного кино) ·%· Человек-муравей и Оса / Ant-Man and the Wasp (2018) BDRemux 1080p от селезень | Лицензия Galfimbul 3292469802430.66 GB 0 0 1541700071

21:01

8-Ноя-18

Зарубежные фильмы 2016-2018 (Новинки зарубежного кино) ·%· Человек-муравей и Оса / Ant-Man and the Wasp (2018) HDRip-AVC от OlLanDGroup | Лицензия Galfimbul 24701096182.3 GB 0 0 1541673030

13:30

8-Ноя-18

Зарубежные фильмы 2016-2018 (Новинки зарубежного кино) ·%· Человек-муравей и Оса / Ant-Man and the Wasp (2018) WEBRip от Dalemake | Локализованный видеоряд | Open Matte | D Galfimbul 15723827201.46 GB 0 0 1539981622

23:40

19-Окт-18

Зарубежные фильмы 2016-2018 (Новинки зарубежного кино) ·%· Человек-муравей и Оса / Ant-Man and the Wasp (2018) BDRip 1080p от Ash61 | 3D-Video | halfOU | iTunes Galfimbul 90506562368.43 GB 0 0 1539818410

02:20

18-Окт-18

Зарубежные фильмы 2016-2018 (Новинки зарубежного кино) ·%· Человек-муравей и Оса / Ant-Man and the Wasp (2018) BDRip-AVC от HELLYWOOD | iTunes Galfimbul 15097493431.41 GB 0 0 1539775882

14:31

17-Окт-18

Зарубежные фильмы 2016-2018 (Новинки зарубежного кино) ·%· Человек-муравей и Оса / Ant-Man and the Wasp (2018) HDRip-AVC от ExKinoRay | iTunes Galfimbul 782550889746 MB 0 0 1539667263

08:21

16-Окт-18

Зарубежные фильмы 2016-2018 (Новинки зарубежного кино) ·%· Человек-муравей и Оса / Ant-Man and the Wasp (2018) UHD BDRemux 2160p от TeamHD | 4K | HDR | iTunes Galfimbul 4426544274041.23 GB 0 0 1539402607

06:50

13-Окт-18

Зарубежные фильмы 2016-2018 (Новинки зарубежного кино) ·%· Человек-муравей и Оса / Ant-Man and the Wasp (2018) BDRip-AVC от HELLYWOOD | iTunes Galfimbul 22792948922.12 GB 0 0 1538943610

23:20

7-Окт-18

Зарубежные фильмы 2016-2018 (Новинки зарубежного кино) ·%· Человек-муравей и Оса / Ant-Man and the Wasp (2018) BDRip от ExKinoRay | iTunes Galfimbul 15139149321.41 GB 0 0 1538936546

21:22

7-Окт-18

Зарубежные фильмы 2016-2018 (Новинки зарубежного кино) ·%· Человек-муравей и Оса / Ant-Man and the Wasp (2018) BDRip от ExKinoRay | iTunes Galfimbul 22870405062.13 GB 0 0 1538936480

21:21

7-Окт-18

Зарубежные фильмы 2016-2018 (Новинки зарубежного кино) ·%· Человек-муравей и Оса / Ant-Man and the Wasp (2018) HDRip от Scarabey | iTunes Galfimbul 15084544001.4 GB 0 0 1538931614

20:00

7-Окт-18

Зарубежные фильмы 2016-2018 (Новинки зарубежного кино) ·%· Человек-муравей и Оса / Ant-Man and the Wasp (2018) BDRip 720p от Scarabey | iTunes Galfimbul 56572179155.27 GB 0 0 1538929419

19:23

7-Окт-18

Зарубежные фильмы 2016-2018 (Новинки зарубежного кино) ·%· Человек-муравей и Оса / Ant-Man and the Wasp (2018) BDRip 1080p от qqss44 & MegaPeer | iTunes Galfimbul 80710861907.52 GB 0 0 1538911291

14:21

7-Окт-18

Еще никто не оставлял запись к записи скачать торрент Человек-муравей и Оса Ant-Man and the Wasp . Будь первым!

!Обратная связь
Team Medical Dragon – Y Đội Rồng chap 147 | 2x05 The Resident | Watch Movie