Erica Ash | Kommissar Beck | HD The Lord of the Rings: The Two Towers (2002)

Скачать через торрент Орёл и решка. Семья Фильм бесплатно в хорошем качестве torrent

Скачивайте на UnionPeer.org фильмы через торрент без регистрации. Новинки кино в хорошем качестве через торрент. На UnionPeer.org можно скачать через торрент фильмы 2014 и 2015 годов. Самые новые фильмы.

Скачать торрент Орёл и решка. Семья бесплатно через .torrent фильм мультфильм сериал

Статистика раздачи
Размер:  874 MB   |    Зарегистрирован:  3 месяца 14 дней   |    .torrent скачан:  31 раз   |   
Раздают:  1  
   
загрузка...
 
Автор Сообщение

Galfimbul

avatar Galfimbul


Орёл и решка. Семья

Дата/Год выпуска: 2018
Страна: Украина
Жанр: путешествия
Продолжительность: 1x70 мин.
Перевод: Не требуется
Русские субтитры: нет

Оригинальная аудиодорожка: русский
Режиссер: Коля Солодников и Катя Гордеева
Телеканал: "Пятница"Описание: Каждый ребенок хочет стать ведущим «Орла и Решки». А каждый родитель мечтает о незабываемом семейном отдыхе. И это стало возможно! Ведь путешествовать с монеткой любимого трэвел-шоу отправляются мамы, папы и их дети! Теперь в «Орле и Решке» вдвое больше ведущих, эмоций и впечатлений. А самое главное – два рюкзака, двести долларов и две золотые карты! Это Орел и Решка. Семья. Путешествуйте с детьми!
Сэмпл: http://www.sendspace.com/file/p1w3j2

качество: SATRip
формат: AVI
Видео: Xvid 720x400 (16:9) ~1536kbps 25fps
Аудио: MP3 192kbps 48kHz 2ch
01. Токио (Япония). Команда «Орла и Решки» объездила весь мир и поменяла несколько пар ведущих, но еще никогда не путешествовала с детьми. В новом сезоне ведущими станут учитель Коля Солодников, его жена Катя Гордеева и их дети – сын Гоша и дочь Саша. В Токио золотая карта достанется Кате и Саше. Они окажутся в мире, окруженном игрушками Хелло Китти, побывают в зоокафе, посмотрят на город с высоты птичьего полета и поедут в парк развлечений «Дисней-Си». А Коля и Гоша вместе со ста долларами на каждого пройдутся по самому оживленному перекрестку в мире, осмотрят главные достопримечательности города, расскажут об особенностях местной культуры, покатаются на экстремальных аттракционах в «Фудзи-Кью» и сходят в гости к ниндзя. Чем можно развлечь детей в мегаполисе, покажет программа Орел и решка. Семья.
GeneralComplete name : F:\Мои раздачи\Телепрограммы\Орёл и решка. Семья\01. Токио.aviFormat : AVIFormat/Info : Audio Video InterleaveFile size : 874 MiBDuration : 1 h 10 minOverall bit rate : 1 737 kb/s

VideoID : 0Format : MPEG-4 VisualFormat profile : Advanced Simple@L5Format settings, BVOP : 2Format settings, QPel : NoFormat settings, GMC : No warppointsFormat settings, Matrix : Default (H.263)Codec ID : XVIDCodec ID/Hint : XviDDuration : 1 h 10 minBit rate : 1 535 kb/sWidth : 720 pixelsHeight : 400 pixelsDisplay aspect ratio : 16:9Frame rate : 25.000 FPSColor space : YUVChroma subsampling : 4:2:0Bit depth : 8 bitsScan type : ProgressiveCompression mode : LossyBits/(Pixel*Frame) : 0.213Stream size : 773 MiB (88%)Writing library : XviD 73

AudioID : 1Format : MPEG AudioFormat version : Version 1Format profile : Layer 3Mode : Joint stereoCodec ID : 55Codec ID/Hint : MP3Duration : 1 h 10 minBit rate mode : ConstantBit rate : 192 kb/sChannel(s) : 2 channelsSampling rate : 48.0 kHzCompression mode : LossyStream size : 96.7 MiB (11%)Alignment : Split accross interleavesInterleave, duration : 40 ms (1.00 video frame)Interleave, preload duratio : 500 ms


Трекер:  [ 30-Июл-2018 18:12 ]

  

Скачать .torrent

Размер .torrent файла 17 KB


Размер: 874 MB
Хэш (hash) релиза: ce50e3e018eaaf9c0ce003a23fa70128f6439393
Подписка на обновления:

Еще никто не оставлял запись к записи скачать торрент Орёл и решка. Семья . Будь первым!

!Обратная связь