Charles Waldron | Transformers (1984) (97) | Brittany Allen

Скачать через торрент 42 Международный фестиваль циркового искусства в Монте-Карло 42 Internationales Zirkusfestival Monte Carlo Фильм бесплатно в хорошем качестве torrent

Скачивайте на UnionPeer.org фильмы через торрент без регистрации. Новинки кино в хорошем качестве через торрент. На UnionPeer.org можно скачать через торрент фильмы 2014 и 2015 годов. Самые новые фильмы.

Скачать торрент 42 Международный фестиваль циркового искусства в Монте-Карло 42 Internationales Zirkusfestival Monte Carlo бесплатно через .torrent фильм мультфильм сериал

Статистика раздачи
Размер:  6.95 GB   |    Зарегистрирован:  3 месяца 25 дней   |    .torrent скачан:  33 раза   |   
Раздают:  1  
   
загрузка...
 
Автор Сообщение

Galfimbul

avatar Galfimbul


42 Международный фестиваль циркового искусства в Монте-Карло / 42 Internationales Zirkusfestival Monte Carlo

Дата/Год выпуска: 2018
Страна: Германия, Швейцария
Жанр: цирк
Продолжительность: 01:58:13
Перевод: Не требуется
Русские субтитры: нет
Чаптеры: есть

Оригинальная аудиодорожка: немецкий
Телеканал: Das erste HD, SRF1 HD
Описание: 42 Международный фестиваль циркового искусства в Монте-Карло.
Вы увидите:
01. Приветствие участников фестиваля
02. Jozsef & Merrylu Richter (Ungarn)
03. Michael Ferreri (Spanien)
04. Duo Stauberti (Tschechische Republik)
05. Duo 2-Zen-0 (Kanada)
06. Akrobatik-Truppe der Inneren Mongolei (Innere Mongolei)
07. Truppe Vavilov (Russland)
08. Ballance (Rumanien)
09. The Heroes (Russland)
10. Sergey Prosvirin (Russland)
11. Akrobaten aus Shanghai (China)
12. Jockey-Truppe Jozsef Richter jr. (Ungarn)
13. Evgeny Komisarenko (Russland)
14. Scott & Muriel (USA und Niderland)
15. Truppe Vavilov (Russland)
16. Duo Markov (Russland)
17. Akrobatiktruppe aus Shanghai (China)
18. Leo & Ursula (Portugal und Spanien)
19. Награждение участников фестиваля

качество: HDTVRip
формат: MKV
Видео: H.264, 1280x720, 50.000 fps, 7797 Kbps
Аудио: AC3, 2.0 ch, 48000 Hz, 448 Kbps
GeneralUnique ID : 21112938824519931690563641873856460092 (0xFE23440871CFF46858BB2E8BA27F53C)Complete name : E:\42 Internationales Zirkusfestival Monte Carlo.mkvFormat : MatroskaFormat version : Version 4 / Version 2File size : 6.95 GiBDuration : 1 h 58 minOverall bit rate : 8 412 kb/sEncoded date : UTC 2018-07-20 05:46:51Writing application : TMPGEnc MPEG Smart Renderer 5 Version 5.0.16.22Writing library : TMPGEnc MPEG Smart Renderer 5 Version 5.0.16.22

VideoID : 1Format : AVCFormat/Info : Advanced Video CodecFormat profile : High@L4Format settings : CABAC / 4 Ref FramesFormat settings, CABAC : YesFormat settings, ReFrames : 4 framesFormat settings, GOP : M=3, N=32Codec ID : V_MPEG4/ISO/AVCDuration : 1 h 58 minBit rate : 7 797 kb/sWidth : 1 280 pixelsHeight : 720 pixelsDisplay aspect ratio : 16:9Frame rate mode : ConstantFrame rate : 50.000 FPSStandard : ComponentColor space : YUVChroma subsampling : 4:2:0Bit depth : 8 bitsScan type : ProgressiveBits/(Pixel*Frame) : 0.169Stream size : 6.44 GiB (93%)Default : YesForced : NoColor range : LimitedColor primaries : BT.709Transfer characteristics : BT.709Matrix coefficients : BT.709

AudioID : 2Format : AC-3Format/Info : Audio Coding 3Codec ID : A_AC3Duration : 1 h 58 minBit rate mode : ConstantBit rate : 448 kb/sChannel(s) : 2 channelsChannel positions : Front: L RSampling rate : 48.0 kHzFrame rate : 31.250 FPS (1536 SPF)Bit depth : 16 bitsCompression mode : LossyStream size : 379 MiB (5%)Service kind : Complete MainDefault : YesForced : No

Menu


Трекер:  [ 20-Июл-2018 10:42 ]

  

Скачать .torrent

Размер .torrent файла 35 KB


Размер: 6.95 GB
Хэш (hash) релиза: 8a8b32255b21099a40b46ea6bf6ab04403bfda8f
Подписка на обновления:

Торренты, похожие на 42 Международный фестиваль циркового искусства в Монте-Карло 42 Internationales Zirkusfestival Monte Carlo скачать торрент

Форум Название Автор Размер S L Добавлен
Развлекательные телепередачи и шоу ·%· 42 Международный фестиваль циркового искусства в Монте-Карло / 42 Internationales Zirkusfestival Monte Carlo [2018, цирк, HDTV 720p/50fps, TS/H.264, GER] Galfimbul 94534809248.8 GB 0 0 1532110331

21:12

20-Июл-18

Еще никто не оставлял запись к записи скачать торрент 42 Международный фестиваль циркового искусства в Монте-Карло 42 Internationales Zirkusfestival Monte Carlo . Будь первым!

!Обратная связь