http://store.steampowered.com/app/513710/SCUM/ | Seed (3) | United Kingdom

Скачать через торрент Джеймс Акастер: Репертуар James Acaster : Repertoire Фильм бесплатно в хорошем качестве torrent

Скачивайте на UnionPeer.org фильмы через торрент без регистрации. Новинки кино в хорошем качестве через торрент. На UnionPeer.org можно скачать через торрент фильмы 2014 и 2015 годов. Самые новые фильмы.

Скачать торрент Джеймс Акастер: Репертуар James Acaster : Repertoire бесплатно через .torrent фильм мультфильм сериал

Статистика раздачи
Размер:  1.56 GB   |    Зарегистрирован:  3 месяца 30 дней   |    .torrent скачан:  48 раз   |   
Раздают:  1  
   
загрузка...
 
Автор Сообщение

Galfimbul

avatar Galfimbul


James Acaster : Repertoire
Джеймс Акастер: Репертуар
Год выхода: 2018
Страна: Великобритания
Жанр: комедия, стендап, монолог
Продолжительность: ~00:52:00
Перевод: Профессиональный (одноголосый закадровый) Ozz
Режиссер: Daniel LucchesiВ ролях: Джеймс Акастер
Описание: Альтернативная комедия Джеймса Акастера, вдохновлённая Диланом Мораном и Стюартом Ли. Моноспектакль «Репертуар» - это 4 выступления авангардного британского комика, связанные не только исполнителем и местом действия, но и чётко выверенными интеллигентными шутками и историями, отголоски которых можно найти в каждом эпизоде. Новаторская, стильная и непредсказуемая комедия с уникальной подачей, составляющей единое целое. Такого изобретательного стендапа вы ещё не видели.

Sample
Роли озвучивают: | Алексей Серёгин |
Автор перевода: | Александр Шумилов |
Подготовлено: Ozz
Качество: WEBRip 1080p
Формат: mkv
Видео кодек: x264
Аудио кодек: AC3
Видео: 1920x1080 at 23.976 fps, AVC, 4000 kbps avg, 0.077 b/pixel
Аудио #1: Russian 48.0 KHz, AC3 , 2 channels, 192 Kbps |Ozz|
Аудио #2: English 48.0 KHz, AC3 , 6 channels, 384 Kbps |Original|
Субтитры: Russian (srt)
Реклама: Присутствует звуковая (два раза в начале и конце по 10 сек.)
Общее
Уникальный идентификатор                 : 232630938591248783274859219085058204003 (0xAF0316CCCAC6EEF79DC71BEBC1896163)
Полное имя                               : D:\James.Acaster.Repertoire.S01.1080p.WEBRip.Rus.Eng.Ozz\James.Acaster.Repertoire.S01E01.1080p.WEBRip.Rus.Eng.Ozz.mkv
Формат                                   : Matroska
Версия формата                           : Version 4 / Version 2
Размер файла                             : 1,56 Гбайт
Продолжительность                        : 50 м. 57 с.
Режим общего битрейта                    : Переменный
Общий поток                              : 4397 Кбит/сек
Дата кодирования                         : UTC 2018-07-14 14:01:31
Программа кодирования                    : mkvmerge v8.3.0 ('Over the Horizon') 64bit
Библиотека кодирования                   : libebml v1.3.1 + libmatroska v1.4.2

Видео
Идентификатор                            : 1
Формат                                   : AVC
Формат/Информация                        : Advanced Video Codec
Профиль формата                          : Main@L4
Настройки формата                        : CABAC / 3 Ref Frames
Параметр CABAC формата                   : Да
Параметр RefFrames формата               : 3 кадра
Идентификатор кодека                     : V_MPEG4/ISO/AVC
Продолжительность                        : 50 м. 56 с.
Вид битрейта                             : Переменный
Битрейт                                  : 3830 Кбит/сек
Максимальный битрейт                     : 5745 Кбит/сек
Ширина                                   : 1920 пикселей
Высота                                   : 1080 пикселей
Соотношение сторон                       : 16:9
Режим частоты кадров                     : Постоянный
Частота кадров                           : 23,976 (24000/1001) кадра/сек
Цветовое пространство                    : YUV
Субдискретизация насыщенности            : 4:2:0
Битовая глубина                          : 8 бит
Тип развёртки                            : Прогрессивная
Бит/(Пиксели*Кадры)                      : 0.077
Размер потока                            : 1,36 Гбайт (87%)
Библиотека кодирования                   : x264 core 148 r2715 7e75228
Настройки программы                      : cabac=1 / ref=3 / deblock=1:0:0 / analyse=0x1:0x111 / me=umh / subme=10 / psy=1 / psy_rd=1.00:0.00 / mixed_ref=1 / me_range=24 / chroma_me=1 / trellis=2 / 8x8dct=0 / cqm=0 / deadzone=21,11 / fast_pskip=1 / chroma_qp_offset=-2 / threads=8 / lookahead_threads=1 / sliced_threads=0 / nr=0 / decimate=1 / interlaced=0 / bluray_compat=0 / stitchable=1 / constrained_intra=0 / bframes=2 / b_pyramid=0 / b_adapt=2 / b_bias=0 / direct=3 / weightb=1 / open_gop=0 / weightp=2 / keyint=48 / keyint_min=25 / scenecut=0 / intra_refresh=0 / rc_lookahead=48 / rc=2pass / mbtree=1 / bitrate=3830 / ratetol=1.0 / qcomp=0.50 / qpmin=6 / qpmax=51 / qpstep=4 / cplxblur=20.0 / qblur=0.5 / vbv_maxrate=5745 / vbv_bufsize=7660 / nal_hrd=vbr / filler=0 / ip_ratio=1.40 / aq=1:1.00
Default                                  : Да
Forced                                   : Нет

Аудио #1
Идентификатор                            : 2
Формат                                   : AC-3
Формат/Информация                        : Audio Coding 3
Идентификатор кодека                     : A_AC3
Продолжительность                        : 50 м. 57 с.
Вид битрейта                             : Постоянный
Битрейт                                  : 192 Кбит/сек
Каналы                                   : 2 канала
Расположение каналов                     : Front: L R
Частота                                  : 48,0 КГц
Частота кадров                           : 31,250 кадров/сек (1536 SPF)
Битовая глубина                          : 16 бит
Метод сжатия                             : С потерями
Размер потока                            : 70,0 Мбайт (4%)
Заголовок                                : VO Ozz-tv
Язык                                     : Russian
ServiceKind/String                       : Complete Main
Default                                  : Да
Forced                                   : Нет

Аудио #2
Идентификатор                            : 3
Формат                                   : AC-3
Формат/Информация                        : Audio Coding 3
Идентификатор кодека                     : A_AC3
Продолжительность                        : 50 м. 57 с.
Вид битрейта                             : Постоянный
Битрейт                                  : 384 Кбит/сек
Каналы                                   : 6 каналов
Расположение каналов                     : Front: L C R, Side: L R, LFE
Частота                                  : 48,0 КГц
Частота кадров                           : 31,250 кадров/сек (1536 SPF)
Битовая глубина                          : 16 бит
Метод сжатия                             : С потерями
Размер потока                            : 140 Мбайт (9%)
Язык                                     : English
ServiceKind/String                       : Complete Main
Default                                  : Нет
Forced                                   : Нет

Текст #1
Идентификатор                            : 4
Формат                                   : UTF-8
Идентификатор кодека                     : S_TEXT/UTF8
Идентификатор кодека/Информация          : UTF-8 Plain Text
Продолжительность                        : 50 м. 6 с.
Битрейт                                  : 144 бит/сек
ElementCount                             : 930
Размер потока                            : 53,2 Кбайт (0%)
Заголовок                                : Александр Шумилов
Язык                                     : Russian
Default                                  : Нет
Forced                                   : Нет

Текст #2
Идентификатор                            : 5
Формат                                   : UTF-8
Идентификатор кодека                     : S_TEXT/UTF8
Идентификатор кодека/Информация          : UTF-8 Plain Text
Продолжительность                        : 49 м. 39 с.
Битрейт                                  : 117 бит/сек
ElementCount                             : 1168
Размер потока                            : 42,9 Кбайт (0%)
Заголовок                                : English
Язык                                     : English
Default                                  : Нет
Forced                                   : Нет
<div class="sp-wrap">
<div class="sp-head folded">Внимание! Раздача ведётся путём добавления новых серий</div>
<div class="sp-body">[b]Внимание! Раздача ведётся путём добавления новых серий; при каждом добавлении создаётся новый торрент. Чтобы начать докачку новой серии, пользователям необходимо сделать следующее:
(1) остановить скачивание,
(2) удалить старый торрент у себя из клиента (старые серии удалять не надо),
(3) скачать новый торрент и запустить его у себя в клиенте вместо старого, при этом указать клиенту путь в старую папку куда и должно происходить скачивание новых серий.

Eсли вы уже удалили старые серии, то предотвратить повторную закачку старых серий можно, отжав галочку в соответствующих местах при запуске нового торрента. По возможности, желательно не удалять старые серии как можно дольше чтобы релизёр не столько продолжал раздавать старые серии, а смог сконцентрироваться на новых.</div>
</div>


Трекер:  [ 14-Июл-2018 23:12 ]

  

Скачать .torrent

Размер .torrent файла 16 KB


Размер: 1.56 GB
Хэш (hash) релиза: 24603684c30d9ec0c8d6f443083fba2cc56b07de
Подписка на обновления:

Еще никто не оставлял запись к записи скачать торрент Джеймс Акастер: Репертуар James Acaster : Repertoire . Будь первым!

!Обратная связь