Watch Now | Mysterious Girlfriend X ( Nazo no Kanojo X) | Assistir A Maldição da Casa Winchester Online Dublado

Скачать через торрент Симбиоз Alien: Covenant Фильм бесплатно в хорошем качестве torrent

Скачивайте на UnionPeer.org фильмы через торрент без регистрации. Новинки кино в хорошем качестве через торрент. На UnionPeer.org можно скачать через торрент фильмы 2014 и 2015 годов. Самые новые фильмы.

Скачать торрент Симбиоз Alien: Covenant бесплатно через .torrent фильм мультфильм сериал

Статистика раздачи
Размер:  3.51 GB   |    Зарегистрирован:  4 месяца 9 дней   |    .torrent скачан:  57 раз   |   
Раздают:  1  
   
загрузка...
 
Автор Сообщение

Galfimbul

avatar Galfimbul


Симбиоз / Alien: Covenant

Дата/Год выпуска: 2017 / 2018
Страна: США, Австралия / Россия
Жанр: Комедия (смешной перевод)
Продолжительность: 01:32:30
Перевод: Любительский (одноголосый закадровый) от Podolbi Filmec production
Режиссер: Ридли Скотт / Бздажек Западловский
В ролях: Майкл Фассбендер, Кэтрин Уотэрстоун, Билли Крудап, Дэнни МакБрайд, Дэмиан Бичир, Кармен Эджого и другие.
Ненормативная лексика: Присутствует в малом количестве
Описание: Магнат Энди Майлер может позволить себе всё. В том числе приобрести под свои нужды целую планету, где выстраивает громаднейший, изолированный комплекс лабораторий для исследований в области генной и биоинженерии. Проходит 14 лет и связь с комплексом неожиданно пропадает. Спустя полгода туда направляется разведывательная экспедиция в поисках выживших, и расследования причин возможной катастрофы.

Релиз:
Сэмпл
качество: BDRip
формат: MKV
Видео: MPEG-4 AVC, 1280x536, 2.40:1, 5400 kbps, 23,976 fps
Аудио: AC-3, 192 kbps, 48 kHz, 2 ch
1. Первая половина вступительного «Пролога» на основе видеоряда «Стива Джобса» изначально имеет столь большую зернистость, так как, по словам Дэнни Бойла (режиссер оригинала), снималась на 16-мм пленку. Я тут не причем, абсолютно.2. Фильм озвучивался не с начала. И не с конца. А, как и «Миссия номер 9», с середины. Первой озвученной сценой, была сцена с флешбеком Дэвида, а последней - вступительный пролог из «Стива Джобса».3. Первый фильм с 2013 года, основная озвучка которого сделана в Латвии. Сейчас это сессионная студия. Но, так как сценарий менялся вплоть до релиза, большое количество фрагментов было доозвучено уже на студии в России, там же было произведено и сведение.4. Некоторая часть фильма озвучивалась практически вслепую, по одной лишь аудиодорожке. Причина в нестабильной работе видеоредактора, из-за чего пришлось «отключать» видеодорожку.5. Изначально планировалась совместная работа над смешным переводом «Чужой: Завет» вместе с Гномом Пасараном. К сожалению, его поглотили жизненные обстоятельства, а впоследствии он и вовсе отказался от своей идеи перевода данного фильма.6. В этом фильме, мною впервые был попробован излюбленный прием монтажеров Дебохподаст. Когда сцена удлиняется за счет использования кадров из этой же сцены по несколько раз, в различном порядке7. Черновой вариант сценария был написан меньше чем за два дня. Дело было в середине августа 2017 года.8. Почти четыре месяца сценарий пролежал в стопке бумаг в виде двух больших блокнотов, один из которых включал из себя сценарии к переводам «Разорен и очень опасен», куски к сиквелу «Невероятных приключений россиянина в Америке», «Отряд косплееров». Оставшиеся страницы включили в себя сценарий к этому фильму. Второй блокнот был начат с нуля.9. Любителям пасхальных яиц. В диалогах также проскакивают числа, имеющие непосредственное отношение к вселенной Чужих.10. Как и «Марсианин», снятый Ридли Скоттом, этот фильм было очень легко переводить. Причины отсутствия «мозговыносящих» моментов в процессе работы над его фильмами мне до сих пор неизвестны.11. На озвучку короткой фразы андроида было записано 135 дублей. И это не шутки. В тот день я больше ничего и не озвучил, так как уже болела голова, а нервы сдали окончательно.12. Для финальных титров было переслушано порядка 5 ГБ различных композиций, но найти наиболее подходящую и «атмосферную» не удалось. В итоге решено было попробовать использовать саундтрек из других частей франшизы «Чужого».13. Номера исследовательского центра и орбитальной станции были даны «в честь» моделей мотоциклов «Урал». Почему бы и нет, правда?..
GeneralUnique ID: 254725757551711669988754113036206274116 (0xBFA2657AF732DFCF5744B73328A0F644)Complete name: C:\!OLD C\user\Desktop\Раздачи\Симбиоз (720p).mkvFormat: MatroskaFormat version: Version 4 / Version 2File size: 3.51 GiBDuration: 1 h 32 minOverall bit rate: 5 435 kb/sEncoded date: UTC 2018-06-11 20:50:36 / UTC 2018-06-11 20:50:36Writing application : Lavf56.40.101Writing library: Lavf56.40.101DEVICECONFORMANCETEMPLATE: MPISVBR: 0SFORIGINALFPS: 239760WMFSDKNEEDED: 0.0.0.0000WMFSDKVERSION: 12.0.9600.17415

VideoID: 1Format: AVCFormat/Info: Advanced Video CodecFormat profile: High@L3.1Format settings: CABAC / 2 Ref FramesFormat settings, CABAC: YesFormat settings, RefFrames: 2 framesCodec ID: V_MPEG4/ISO/AVCDuration: 1 h 32 minBit rate: 5 135 kb/sNominal bit rate: 5 400 kb/sWidth: 1 280 pixelsHeight: 536 pixelsDisplay aspect ratio: 2.40:1Frame rate mode: ConstantFrame rate: 23.976 (24000/1001) FPSColor space: YUVChroma subsampling: 4:2:0Bit depth: 8 bitsScan type: ProgressiveBits/(Pixel*Frame): 0.312Stream size: 3.32 GiB (94%)Writing library: x264 core 148 r2538Encoding settings: cabac=1 / ref=2 / deblock=1:0:0 / analyse=0x3:0x133 / me=hex / subme=7 / psy=1 / psy_rd=1.00:0.00 / mixed_ref=0 / me_range=16 / chroma_me=1 / trellis=1 / 8x8dct=1 / cqm=0 / deadzone=21,11 / fast_pskip=1 / chroma_qp_offset=-2 / threads=6 / lookahead_threads=1 / sliced_threads=0 / nr=0 / decimate=1 / interlaced=0 / bluray_compat=0 / constrained_intra=0 / bframes=3 / b_pyramid=0 / b_adapt=1 / b_bias=0 / direct=3 / weightb=1 / open_gop=0 / weightp=2 / keyint=239 / keyint_min=23 / scenecut=40 / intra_refresh=0 / rc_lookahead=40 / rc=cbr / mbtree=1 / bitrate=5400 / ratetol=1.0 / qcomp=0.60 / qpmin=10 / qpmax=69 / qpstep=4 / vbv_maxrate=5400 / vbv_bufsize=17500 / nal_hrd=none / filler=0 / ip_ratio=1.40 / aq=3:1.00Default: YesForced: No

AudioID: 2Format: AC-3Format/Info: Audio Coding 3Format settings, Endianness : BigCodec ID: A_AC3Duration: 1 h 32 minBit rate mode: ConstantBit rate: 192 kb/sChannel(s): 2 channelsChannel positions: Front: L RSampling rate: 44.1 kHzFrame rate: 28.711 FPS (1536 SPF)Bit depth: 16 bitsCompression mode: LossyStream size: 127 MiB (4%)Writing library: Lavc56.58.100 ac3_fixedLanguage: RussianService kind: Complete MainDefault: YesForced: No
Другие переводы студии:
Кризисный период
Я из будущего
Невероятные приключения россиянина в Америке
Я из будущего 2: Раб или Герой?
Белый слоник
Я из будущего 3
Разорен и очень опасен
Миссия номер 9

Трекер:  [ 04-Июл-2018 13:12 ]

  

Скачать .torrent

Размер .torrent файла 18 KB


Размер: 3.51 GB
Хэш (hash) релиза: 65824ac48e7b505744fe4880845fe4ec1650afcf
Подписка на обновления:

Торренты, похожие на Симбиоз Alien: Covenant скачать торрент

Форум Название Автор Размер S L Добавлен
Зарубежные фильмы 2016-2018 (Новинки зарубежного кино) ·%· Симбиоз / Alien: Covenant (2018) HDRip | L1 Galfimbul 16157450861.5 GB 0 0 1532251817

12:30

22-Июл-18

Еще никто не оставлял запись к записи скачать торрент Симбиоз Alien: Covenant . Будь первым!

!Обратная связь