Strangers | SEAL Team | Wondershare Data Recovery 5.0.6.1 FULL + Crack

Скачать через торрент Что? Где? Когда? Летняя серия. Пятая Игра Фильм бесплатно в хорошем качестве torrent

Скачивайте на UnionPeer.org фильмы через торрент без регистрации. Новинки кино в хорошем качестве через торрент. На UnionPeer.org можно скачать через торрент фильмы 2014 и 2015 годов. Самые новые фильмы.

Скачать торрент Что? Где? Когда? Летняя серия. Пятая Игра бесплатно через .torrent фильм мультфильм сериал

Статистика раздачи
Размер:  3.62 GB   |    Зарегистрирован:  4 месяца 19 дней   |    .torrent скачан:  51 раз   |   
Раздают:  1  
   
загрузка...
 
Автор Сообщение

Galfimbul

avatar Galfimbul


Что? Где? Когда? Летняя серия. Пятая Игра

Дата/Год выпуска: 24.06.2018
Страна: Россия
Жанр: Телеигра
Продолжительность: 00:46:40
Перевод: Не требуется
Телеканал: Первый HD
Описание: Пятая Игра Летней Серии 2018г Элитарного клуба ЧГК

Доп. информация: команда Балаша Касумова

1. Михаил Скипский
2. Елизавета Овдеенко
3. Юлия Лазарева
4. Дмитрий Авдеенко
5. Эльман Талыбов
6. Балаш Касумов

качество: HDTV 1080i
формат: TS
Видео: AVC at 9967 Кбит/сек Aspect : 1920 x 1080 (1.778) at 25.000 fps
Аудио: AC-3 at 384 Кбит/сек Infos : 6 каналов, 48,0 КГц
Аудио 2: MPEG Audio at 192 Кбит/сек Infos : 2 канала, 48,0 КГц
ОбщееИдентификатор : 1 (0x1)Полное имя : E:\MPEG\ЧГК.24.06.2018.HDTV.1080i.Doc66.tsФормат : MPEG-TSРазмер файла : 3,62 ГбайтПродолжительность : 46 м.Режим общего битрейта : ПеременныйОбщий поток : 11,1 Мбит/сек

ВидеоИдентификатор : 205 (0xCD)Идентификатор меню : 20105 (0x4E89)Формат : AVCФормат/Информация : Advanced Video CodecПрофиль формата : High@L4Параметр CABAC формата : ДаПараметр ReFrames формата : 4 кадраИдентификатор кодека : 27Продолжительность : 46 м.Битрейт : 9967 Кбит/секШирина : 1920 пикселейВысота : 1080 пикселейСоотношение сторон : 16:9Частота кадров : 25,000 кадров/секСтандарт вещания : ComponentЦветовое пространство : YUVСубдискретизация насыщенности : 4:2:0Битовая глубина : 8 битТип развёртки : ЧересстрочнаяПорядок развёртки : Верхнее поле первоеБит/(Пиксели*Кадры) : 0.192Размер потока : 3,25 Гбайт (90%)Цветовой диапазон : LimitedОсновные цвета : BT.709Характеристики трансфера : BT.709Коэффициенты матрицы : BT.709

Аудио #1Идентификатор : 305 (0x131)Идентификатор меню : 20105 (0x4E89)Формат : AC-3Формат/Информация : Audio Coding 3Расширение режима : CM (complete main)Параметр Endianness формата : BigИдентификатор кодека : 6Продолжительность : 46 м.Вид битрейта : ПостоянныйБитрейт : 384 Кбит/секКаналы : 6 каналовРасположение каналов : Front: L C R, Side: L R, LFEЧастота : 48,0 КГцМетод сжатия : С потерямиЗадержка видео : -80 мс.Размер потока : 128 Мбайт (3%)Язык : Russian

Аудио #2Идентификатор : 306 (0x132)Идентификатор меню : 20105 (0x4E89)Формат : MPEG AudioВерсия формата : Version 1Профиль формата : Layer 2Идентификатор кодека : 3Продолжительность : 46 м.Вид битрейта : ПостоянныйБитрейт : 192 Кбит/секКаналы : 2 каналаЧастота : 48,0 КГцМетод сжатия : С потерямиЗадержка видео : -80 мс.Размер потока : 64,1 Мбайт (2%)Язык : Russian

Текст #1Идентификатор : 307 (0x133)-100Идентификатор меню : 20105 (0x4E89)Формат : TeletextЯзык : Russian

Текст #2Идентификатор : 307 (0x133)-888Идентификатор меню : 20105 (0x4E89)Формат : Teletext SubtitleЯзык : RussianЯзык, дополнительно : For hearing impaired people

МенюИдентификатор : 105 (0x69)Идентификатор меню : 20105 (0x4E89)Продолжительность : 46 м.Список : 205 (0xCD) (AVC) / 305 (0x131) (AC-3, Russian) / 306 (0x132) (MPEG Audio, Russian) / 307 (0x133) ()Язык : / Russian / Russian


Трекер:  [ 25-Июн-2018 00:42 ]

  

Скачать .torrent

Размер .torrent файла 18 KB


Размер: 3.62 GB
Хэш (hash) релиза: 4facb0be829f213ba32bf3d40f0543b2a2e8b039
Подписка на обновления:

Торренты, похожие на Что? Где? Когда? Летняя серия. Пятая Игра скачать торрент

Форум Название Автор Размер S L Добавлен
Развлекательные телепередачи и шоу ·%· Что? Где? Когда? Летняя серия. Пятая Игра [24.06.2018, Телеигра, HDTVRip - AVC] Galfimbul 701410200669 MB 0 0 1529903533

08:12

25-Июн-18

Развлекательные телепередачи и шоу ·· Что? Где? Когда? - Летняя серия игр 2015 года - Игра пятая. Финал (Эфир 28.06.2015) (Борис Крюк) [2015, Интеллектуальная игра, HDTV 1080i] Galfimbul 42850633203.99 GB 0 0 1435526274

00:17

29-Июн-15

Еще никто не оставлял запись к записи скачать торрент Что? Где? Когда? Летняя серия. Пятая Игра . Будь первым!

!Обратная связь