Adorables Ennemies streaming | Doli Armaanon Ki | IMDb: 7 S6E22 NYPD Blue – Season 6

Скачать через торрент Что? Где? Когда? Летняя серия. Четвёртая Игра Фильм бесплатно в хорошем качестве torrent

Скачивайте на UnionPeer.org фильмы через торрент без регистрации. Новинки кино в хорошем качестве через торрент. На UnionPeer.org можно скачать через торрент фильмы 2014 и 2015 годов. Самые новые фильмы.

Скачать торрент Что? Где? Когда? Летняя серия. Четвёртая Игра бесплатно через .torrent фильм мультфильм сериал

Статистика раздачи
Размер:  3.75 GB   |    Зарегистрирован:  4 месяца 25 дней   |    .torrent скачан:  39 раз   |   
Раздают:  1  
   
загрузка...
 
Автор Сообщение

Galfimbul

avatar Galfimbul


Что? Где? Когда? Летняя серия. Четвёртая Игра

Дата/Год выпуска: 17.06.2018
Страна: Россия
Жанр: Телеигра
Продолжительность: 00:55:45
Перевод: Не требуется
Телеканал: Первый HD
Описание: Четвёртая Игра Летней Серии 2018г Элитарного клуба ЧГК

Доп. информация: команда Алёны Повышевой

1. Дмитрий Панайотти
2. Иван Марышев
3. Алексей Самулёв
4. Юрий Филиппов
5. Денис Лагутин
6. Алёна Повышева

качество: HDTV 1080i
формат: TS/M2TS
Видео: AVC at 8571 Кбит/сек Aspect : 1920 x 1080 (1.778) at 25.000 fps
Аудио: AC-3 at 384 Кбит/сек Infos : 6 каналов, 48,0 КГц
Аудио 2: MPEG Audio at 192 Кбит/сек Infos : 2 канала, 48,0 КГц
ОбщееИдентификатор : 1 (0x1)Полное имя : E:\MPEG\ЧГК.17.06.2018.HDTV.1080i.Doc66.tsФормат : MPEG-TSРазмер файла : 3,75 ГбайтПродолжительность : 55 м.Режим общего битрейта : ПеременныйОбщий поток : 9628 Кбит/сек

ВидеоИдентификатор : 205 (0xCD)Идентификатор меню : 20105 (0x4E89)Формат : AVCФормат/Информация : Advanced Video CodecПрофиль формата : High@L4Параметр CABAC формата : ДаПараметр ReFrames формата : 4 кадраПараметр GOP формата : M=4, N=28Идентификатор кодека : 27Продолжительность : 55 м.Битрейт : 8571 Кбит/секШирина : 1920 пикселейВысота : 1080 пикселейСоотношение сторон : 16:9Частота кадров : 25,000 кадров/секСтандарт вещания : ComponentЦветовое пространство : YUVСубдискретизация насыщенности : 4:2:0Битовая глубина : 8 битТип развёртки : ЧересстрочнаяПорядок развёртки : Верхнее поле первоеБит/(Пиксели*Кадры) : 0.165Размер потока : 3,34 Гбайт (89%)Цветовой диапазон : LimitedОсновные цвета : BT.709Характеристики трансфера : BT.709Коэффициенты матрицы : BT.709

Аудио #1Идентификатор : 305 (0x131)Идентификатор меню : 20105 (0x4E89)Формат : AC-3Формат/Информация : Audio Coding 3Расширение режима : CM (complete main)Параметр Endianness формата : BigИдентификатор кодека : 6Продолжительность : 55 м.Вид битрейта : ПостоянныйБитрейт : 384 Кбит/секКаналы : 6 каналовРасположение каналов : Front: L C R, Side: L R, LFEЧастота : 48,0 КГцМетод сжатия : С потерямиЗадержка видео : -120 мс.Размер потока : 153 Мбайт (4%)Язык : Russian

Аудио #2Идентификатор : 306 (0x132)Идентификатор меню : 20105 (0x4E89)Формат : MPEG AudioВерсия формата : Version 1Профиль формата : Layer 2Идентификатор кодека : 3Продолжительность : 55 м.Вид битрейта : ПостоянныйБитрейт : 192 Кбит/секКаналы : 2 каналаЧастота : 48,0 КГцМетод сжатия : С потерямиЗадержка видео : -120 мс.Размер потока : 76,6 Мбайт (2%)Язык : Russian

Текст #1Идентификатор : 307 (0x133)-100Идентификатор меню : 20105 (0x4E89)Формат : TeletextЯзык : Russian

Текст #2Идентификатор : 307 (0x133)-888Идентификатор меню : 20105 (0x4E89)Формат : Teletext SubtitleЯзык : RussianЯзык, дополнительно : For hearing impaired people

МенюИдентификатор : 105 (0x69)Идентификатор меню : 20105 (0x4E89)Продолжительность : 55 м.Список : 205 (0xCD) (AVC) / 305 (0x131) (AC-3, Russian) / 306 (0x132) (MPEG Audio, Russian) / 307 (0x133) ()Язык : / Russian / Russian
будут


Трекер:  [ 18-Июн-2018 17:12 ]

  

Скачать .torrent

Размер .torrent файла 19 KB


Размер: 3.75 GB
Хэш (hash) релиза: adafadcc245e7f5abf823c2be397b549331f6e43
Подписка на обновления:

Торренты, похожие на Что? Где? Когда? Летняя серия. Четвёртая Игра скачать торрент

Форум Название Автор Размер S L Добавлен
Развлекательные телепередачи и шоу ·· Что? Где? Когда? - Летняя серия игр 2015 года - Игра четвёртая (Эфир 21.06.2015) (Борис Крюк) [2015, Интеллектуальная игра, HDTV 1080i] Galfimbul 37885171563.53 GB 0 0 1435528644

00:57

29-Июн-15

Еще никто не оставлял запись к записи скачать торрент Что? Где? Когда? Летняя серия. Четвёртая Игра . Будь первым!

!Обратная связь